<?xml version="1.0" standalone="no"?>
<!DOCTYPE svg PUBLIC "-//W3C//DTD SVG 1.1//EN" "http://www.w3.org/Graphics/SVG/1.1/DTD/svg11.dtd" >
<svg xmlns="http://www.w3.org/2000/svg" xmlns:xlink="http://www.w3.org/1999/xlink" version="1.1">
<metadata>
Created by FontForge 20170910 at Thu Aug 23 08:14:30 2012
 By jimmywarting
(c) 2012 LeoMoon Studios
</metadata>
<defs>
<font id="LMUYekan" horiz-adv-x="0" >
  <font-face 
    font-family="LMU Yekan"
    font-weight="400"
    font-stretch="normal"
    units-per-em="2048"
    panose-1="0 0 4 0 0 0 0 0 0 0"
    ascent="1638"
    descent="-410"
    bbox="-288 -1044 2334 2064"
    underline-thickness="100"
    underline-position="-950"
    unicode-range="U+000D-FEFC"
  />
<missing-glyph horiz-adv-x="1024" 
d="M128 0v1360h768v-1360h-768zM256 128h512v1104h-512v-1104z" />
    <glyph glyph-name="uE818" unicode="&#x651;&#x64b;" 
d="M74 1523h45q0 -100 81 -100q80 0 83 100h50q0 -100 83 -100q81 0 82 100h48q0 -62 -35 -105q-37 -47 -97 -47q-45 0 -110 57q-47 -57 -110 -57q-57 0 -91 49q-29 43 -29 103zM139 1689l315 173l28 -52l-315 -168zM140 1805l315 174l28 -52l-316 -172z" />
    <glyph glyph-name="uFC5E" unicode="&#x651;&#x64c;" arabic-form="isolated" 
d="M105 1516h45q0 -100 81 -100q80 0 83 100h50q0 -100 83 -100q81 0 82 100h48q0 -62 -35 -105q-37 -47 -97 -47q-45 0 -110 57q-47 -57 -110 -57q-57 0 -91 49q-29 43 -29 103zM137 1829q56 19 85 19q57 0 72 -78l77 45q-79 45 -79 114q0 90 87 124q29 11 37 11
q54 0 93 -37t39 -90q0 -91 -49 -117l-283 -151l-28 48q51 33 63 53q0 34 -45 34q-29 0 -49 -11zM337 1930q0 -78 85 -78q26 0 53 29.5t27 56.5q0 33 -26.5 56t-59.5 23q-79 0 -79 -87z" />
    <glyph glyph-name="uFC5F" unicode="&#x651;&#x64d;" arabic-form="isolated" 
d="M94 1946h45q0 -100 81 -100q80 0 83 100h50q0 -100 83 -100q81 0 82 100h48q0 -62 -35 -105q-37 -47 -97 -47q-45 0 -110 57q-47 -57 -110 -57q-57 0 -91 49q-29 43 -29 103zM130 1405l315 175l27 -54l-315 -169zM130 1548l315 174l27 -52l-315 -169z" />
    <glyph glyph-name="uFC60" unicode="&#x651;&#x64e;" arabic-form="isolated" 
d="M94 1482h45q0 -100 81 -100q80 0 83 100h50q0 -100 83 -100q81 0 82 100h48q0 -62 -35 -105q-37 -47 -97 -47q-45 0 -110 57q-47 -57 -110 -57q-57 0 -91 49q-29 43 -29 103zM140 1634l315 176l28 -55l-315 -168z" />
    <glyph glyph-name="uFC61" unicode="&#x651;&#x64f;" arabic-form="isolated" 
d="M115 1493h45q0 -100 81 -100q80 0 83 100h50q0 -100 83 -100q81 0 82 100h48q0 -62 -35 -105q-37 -47 -97 -47q-45 0 -110 57q-47 -57 -110 -57q-57 0 -91 49q-29 43 -29 103zM191 1678l126 70q-78 45 -78 113q0 91 90 125q26 10 33 10q55 0 94.5 -37t39.5 -91
q0 -89 -50 -116l-227 -121zM284 1862q0 -79 86 -79q26 0 52.5 30t26.5 57q0 33 -26.5 55.5t-60.5 22.5q-78 0 -78 -86z" />
    <glyph glyph-name="uFC62" unicode="&#x651;&#x650;" arabic-form="isolated" 
d="M84 1789h45q0 -100 81 -100q80 0 83 100h50q0 -100 83 -100q81 0 82 100h48q0 -62 -35 -105q-37 -47 -97 -47q-45 0 -110 57q-47 -57 -110 -57q-57 0 -91 49q-29 43 -29 103zM135 1413l315 175l28 -54l-314 -169z" />
    <glyph glyph-name="uFDF2" unicode="&#xfedf;&#xfee0;&#xfeea;" horiz-adv-x="2253" arabic-form="isolated" 
d="M36 323q0 156 209 365l-51 58l121 122l539 -573q68 -72 92 -87q49 -30 230 -30q87 0 114 48q19 34 19 128v800h180v-836q0 -98 59 -122q40 -16 277 -16q80 0 106 43q15 24 15 131v800h177v-879q0 -130 -77.5 -202.5t-209.5 -72.5h-173q-176 0 -262 70q-65 -54 -117 -64
q-33 -6 -216 -6q-118 0 -172 31q-27 16 -188 165q-102 -216 -329 -216q-149 0 -246 97t-97 246zM216 311q0 -70 47 -113.5t118 -43.5q69 0 120.5 44.5t51.5 112.5q0 66 -34 99l-145 144q-84 -79 -105 -106q-53 -68 -53 -137zM1165 1415h45q0 -100 81 -100q80 0 83 100h50
q0 -100 84 -100q81 0 81 100h49q0 -62 -35 -105q-38 -46 -98 -46q-45 0 -110 56q-46 -56 -104 -56q-117 0 -126 151z" />
    <glyph glyph-name="uFEF5" unicode="&#xfedf;&#xfe82;" horiz-adv-x="1054" arabic-form="isolated" 
d="M-221 1295q65 139 116 180q61 49 236 61q53 4 257 4q76 0 233 -3v-177h-451q-30 0 -105 -9q-42 -5 -61 -20q-24 -19 -61 -100zM129 275v879h180v-800q0 -111 30.5 -142.5t140.5 -31.5h158q79 0 106 43q15 24 15 131v800h176v-879q0 -130 -77.5 -202.5t-208.5 -72.5h-169
q-351 0 -351 275z" />
    <glyph glyph-name="uFEF6" unicode="&#xfee0;&#xfe82;" horiz-adv-x="1054" arabic-form="final" 
d="M-288 1361q66 139 117 180q61 49 236 61q52 4 256 4q76 0 234 -2v-178h-451q-31 0 -105 -9q-43 -4 -62 -20q-23 -18 -61 -100zM79 275v879h176v-800q0 -121 34 -154q20 -20 141 -20h154q78 0 105 43q16 26 16 131v800h180v-818q0 -156 199 -156v-180q-157 0 -246 118
q-90 -118 -243 -118h-165q-351 0 -351 275z" />
    <glyph glyph-name="uFEF7" unicode="&#xfedf;&#xfe84;" horiz-adv-x="1054" arabic-form="isolated" 
d="M81 1335l84 48q-75 38 -75 110q0 49 34.5 84.5t83.5 35.5q24 0 69 -19l-17 -36q-22 13 -54 13q-70 0 -70 -82q0 -68 67 -68q54 0 122 42l22 -44l-246 -124zM129 275v879h180v-800q0 -111 30.5 -142.5t140.5 -31.5h158q79 0 106 43q15 24 15 131v800h176v-879
q0 -130 -77.5 -202.5t-208.5 -72.5h-169q-351 0 -351 275z" />
    <glyph glyph-name="uFEF8" unicode="&#xfee0;&#xfe84;" horiz-adv-x="1054" arabic-form="final" 
d="M44 1328l84 48q-75 38 -75 110q0 49 35 84.5t84 35.5q24 0 69 -19l-18 -36q-21 13 -54 13q-70 0 -70 -82q0 -68 68 -68q54 0 121 42l23 -44l-247 -124zM79 275v879h176v-800q0 -121 34 -154q20 -20 141 -20h154q78 0 105 43q16 26 16 131v800h180v-818q0 -156 199 -156
v-180q-157 0 -246 118q-90 -118 -243 -118h-165q-351 0 -351 275z" />
    <glyph glyph-name="uFEF9" unicode="&#xfedf;&#xfe88;" horiz-adv-x="1054" arabic-form="isolated" 
d="M129 275v879h180v-800q0 -111 30.5 -142.5t140.5 -31.5h158q79 0 106 43q15 24 15 131v800h176v-879q0 -130 -77.5 -202.5t-208.5 -72.5h-169q-351 0 -351 275zM177 -414l84 47q-75 39 -75 110q0 50 34.5 85t83.5 35q24 0 69 -18l-17 -37q-22 14 -54 14q-70 0 -70 -82
q0 -68 67 -68q54 0 122 41l22 -43l-246 -124z" />
    <glyph glyph-name="uFEFA" unicode="&#xfee0;&#xfe88;" horiz-adv-x="1054" arabic-form="final" 
d="M79 275v879h176v-800q0 -121 34 -154q20 -20 141 -20h154q78 0 105 43q16 26 16 131v800h180v-818q0 -156 199 -156v-180q-157 0 -246 118q-90 -118 -243 -118h-165q-351 0 -351 275zM103 -407l84 48q-75 39 -75 110q0 49 35 84.5t84 35.5q23 0 68 -19l-17 -36
q-21 14 -54 14q-70 0 -70 -83q0 -67 68 -67q53 0 121 41l22 -44l-246 -124z" />
    <glyph glyph-name="uFEFB" unicode="&#xfedf;&#xfe8e;" horiz-adv-x="1054" arabic-form="isolated" 
d="M129 275v879h180v-800q0 -111 30.5 -142.5t140.5 -31.5h158q79 0 106 43q15 24 15 131v800h176v-879q0 -130 -77.5 -202.5t-208.5 -72.5h-169q-351 0 -351 275z" />
    <glyph glyph-name="uFEFC" unicode="&#xfee0;&#xfe8e;" horiz-adv-x="1054" arabic-form="final" 
d="M79 275v879h176v-800q0 -121 34 -154q20 -20 141 -20h154q78 0 105 43q16 26 16 131v800h180v-818q0 -156 199 -156v-180q-157 0 -246 118q-90 -118 -243 -118h-165q-351 0 -351 275z" />
    <glyph glyph-name="u0652_u064E.liga" unicode="&#x652;&#x64e;" horiz-adv-x="1" 
d="M92 1065v287h78l2 -289z" />
    <glyph glyph-name="u0652_u064B.liga" unicode="&#x652;&#x64b;" horiz-adv-x="1" 
d="M-2 1059q0 100 114 100q125 0 125 -100q0 -46 -33.5 -76t-80.5 -30q-50 0 -86 27q-39 30 -39 79zM343 1059q0 100 114 100q125 0 125 -100q0 -46 -33.5 -76t-80.5 -30q-50 0 -86 27q-39 30 -39 79z" />
    <glyph glyph-name="u0652_u064D.liga" unicode="&#x652;&#x64d;" horiz-adv-x="1" 
d="M289 -637q0 100 114 100q125 0 125 -100q0 -46 -33.5 -76t-80.5 -30q-50 0 -86 27q-39 30 -39 79zM634 -637q0 100 114 100q125 0 125 -100q0 -46 -33.5 -76t-80.5 -30q-50 0 -86 27q-39 30 -39 79z" />
    <glyph glyph-name="u0629" unicode="&#x6c0;" horiz-adv-x="809" arabic-form="isolated" 
d="M70 329q0 154 205 359l-52 58l122 122l329 -340q84 -87 84 -223q0 -140 -107 -234q-103 -91 -245 -91q-147 0 -241.5 100.5t-94.5 248.5zM138 989l103 56q-90 50 -90 131q0 67 39.5 111t104.5 44q25 0 86 -22l-22 -48q-30 17 -55 17q-99 0 -99 -102q0 -81 76 -81
q63 0 160 51l25 -53l-303 -153zM244 311q0 -69 52 -113.5t123 -44.5t115.5 46t44.5 117q0 55 -29 85l-145 153q-161 -153 -161 -243z" />
    <glyph glyph-name="u0643" unicode="&#x6a9;" horiz-adv-x="1606" arabic-form="isolated" 
d="M73 293v272h180v-247q0 -76 28.5 -107t103.5 -31h863q95 0 95 84q0 38 -29 67l-471 487l-25 205l656 236l24 -180l-473 -183l421 -446q87 -91 87 -206q0 -112 -85 -180q-79 -64 -193 -64h-926q-115 0 -188 91q-68 85 -68 202z" />
    <glyph glyph-name="u064A" unicode="&#x6cc;" horiz-adv-x="1289" arabic-form="isolated" 
d="M79 9v372h169v-392q0 -120 88 -196q84 -72 205 -72h232q106 0 190 69q90 72 90 176q0 89 -123 117q-33 7 -45 7h-250v309q0 139 89 229.5t229 90.5h216l7 -169h-216q-97 0 -134 -86q-17 -42 -22 -205q213 0 284 -26q137 -52 137 -224q0 -265 -191 -390q-113 -74 -250 -74
h-279q-185 0 -308 141q-118 135 -118 323z" />
    <glyph glyph-name="uFB57" unicode="&#x67e;" horiz-adv-x="1713" arabic-form="final" 
d="M81 293v272h180v-247q0 -77 30 -107.5t105 -30.5h837q75 0 103.5 30.5t28.5 107.5v247h183v-247q0 -138 198 -138v-180q-214 0 -286 70q-92 -70 -174 -70h-948q-112 0 -187 92q-70 86 -70 201zM554 -314q0 47 32 79t79 32q128 0 128 -111q0 -94 -122 -94q-117 0 -117 94z
M719 -568q0 48 32 79t80 31q52 0 88 -28q39 -31 39 -82q0 -97 -114 -97q-125 0 -125 97zM899 -314q0 47 32 79t79 32q128 0 128 -111q0 -94 -122 -94q-117 0 -117 94z" />
    <glyph glyph-name="uFB58" unicode="&#x67e;" horiz-adv-x="703" arabic-form="initial" 
d="M-20 0v180h329q75 0 103.5 30.5t28.5 107.5v247h180v-272q0 -117 -68 -202q-74 -91 -188 -91h-385zM13 -314q0 48 32.5 79.5t80.5 31.5q128 0 128 -111q0 -96 -116 -96q-125 0 -125 96zM178 -568q0 110 112 110q52 0 89 -28q40 -31 40 -82q0 -98 -115 -98q-126 0 -126 98
zM358 -314q0 48 32.5 79.5t80.5 31.5q128 0 128 -111q0 -96 -116 -96q-125 0 -125 96z" />
    <glyph glyph-name="uFB59" unicode="&#x67e;" horiz-adv-x="739" arabic-form="medial" 
d="M-39 0v180h334q75 0 104 30.5t29 107.5v247h181v-247q0 -89 41 -117q32 -21 128 -21v-180q-111 -1 -165 9q-46 19 -93 61q-86 -70 -171 -70h-388zM-18 -314q0 48 33 79.5t81 31.5q128 0 128 -111q0 -96 -116 -96q-126 0 -126 96zM148 -568q0 110 112 110q52 0 89 -28
q40 -31 40 -82q0 -98 -115 -98q-126 0 -126 98zM328 -314q0 48 32.5 79.5t80.5 31.5q128 0 128 -111q0 -96 -116 -96q-125 0 -125 96z" />
    <glyph glyph-name="uFB7B" unicode="&#x686;" horiz-adv-x="1104" arabic-form="final" 
d="M61 -304q0 296 264 442l551 303q-76 117 -397 109q-317 -7 -201 -7l-23 176h434q376 0 376 -371l-164 -93q23 -55 114 -70q30 -5 145 -5v-180q-163 5 -220 36q-77 43 -91 90q-10 33 -24 85l-352 -195q-240 -133 -240 -334q0 -146 113.5 -259.5t259.5 -113.5h525l15 -177
h-492q-253 0 -421 155q-172 158 -172 409zM424 -223q0 48 32 79t80 31q52 0 89 -28q40 -31 40 -82q0 -95 -122 -95q-119 0 -119 95zM586 -478q0 110 112 110q51 0 88 -28q40 -31 40 -82q0 -97 -113 -97q-127 0 -127 97zM770 -223q0 48 33 79t81 31q51 0 88 -28
q39 -31 39 -82q0 -95 -121 -95q-120 0 -120 95z" />
    <glyph glyph-name="uFB7C" unicode="&#x686;" horiz-adv-x="1031" arabic-form="initial" 
d="M-43 0v180q349 0 493 68q11 5 130 68l220 123q-35 74 -116 94q-35 8 -159 8l-315 2l-25 176h444q367 0 367 -371l-412 -235q-145 -83 -304 -103q-79 -10 -323 -10zM98 -314q0 48 32 79.5t80 31.5q53 0 89 -28q40 -31 40 -83q0 -94 -123 -94q-118 0 -118 94zM261 -568
q0 110 113 110q51 0 88 -28q41 -31 41 -82q0 -97 -114 -97q-128 0 -128 97zM443 -314q0 48 32 79.5t80 31.5q128 0 128 -111q0 -94 -122 -94q-118 0 -118 94z" />
    <glyph glyph-name="uFB7D" unicode="&#x686;" horiz-adv-x="1031" arabic-form="medial" 
d="M-43 0v180q348 0 493 68q30 13 350 191q-35 73 -116 94q-33 8 -159 8l-315 2l-25 176h444q367 0 367 -371l-167 -92q0 -76 230 -76v-180q-254 6 -281 118q-12 45 -23 93q-260 -154 -376 -183q-107 -28 -422 -28zM120 -314q0 45 34 77t80 32q126 0 126 -109
q0 -96 -116 -96q-124 0 -124 96zM284 -568q0 108 115 108q126 0 126 -108q0 -98 -115 -98q-126 0 -126 98zM464 -314q0 45 34 77t80 32q52 0 89.5 -29t37.5 -80q0 -96 -116 -96q-125 0 -125 96z" />
    <glyph glyph-name="uFB8B" unicode="&#x698;" horiz-adv-x="915" arabic-form="final" 
d="M36 -275h248q112 0 197 75q89 78 89 189v576h180v-259q0 -126 196 -126v-180q-142 2 -193 85q0 -226 -112 -375q-123 -165 -343 -165h-233zM334 804q0 97 115 97q124 0 124 -97q0 -47 -34 -78.5t-80 -31.5q-51 0 -88 30.5t-37 79.5zM503 1059q0 97 115 97q126 0 126 -97
q0 -48 -33.5 -79t-81.5 -31q-50 0 -88 31t-38 79zM679 804q0 97 114 97q127 0 127 -97q0 -48 -33.5 -79t-81.5 -31q-49 0 -86 30q-40 32 -40 80z" />
    <glyph glyph-name="uFB93" unicode="&#x6af;" horiz-adv-x="1760" arabic-form="final" 
d="M63 293v272h181v-247q0 -77 28.5 -107.5t103.5 -30.5h879q90 0 90 68q0 34 -42 78l-472 492l-31 202l664 239l25 -180l-469 -175l499 -555q0 -1 127 -130q33 -34 148 -39v-180q-203 0 -298 129q-47 -129 -232 -129h-944q-116 0 -189 90q-68 84 -68 203zM784 1203l631 227
l4 -69l-626 -227z" />
    <glyph glyph-name="uFB94" unicode="&#x6af;" horiz-adv-x="856" arabic-form="initial" 
d="M-43 0v180h526q103 0 103 68q0 37 -33 72l-479 498l-34 202l665 239l25 -180l-474 -180l463 -511q50 -56 50 -149q0 -115 -89 -180q-79 -59 -197 -59h-526zM23 1203l632 227l5 -69l-629 -227z" />
    <glyph glyph-name="uFB95" unicode="&#x6af;" horiz-adv-x="1031" arabic-form="medial" 
d="M-25 0v180h539q92 0 92 68q0 34 -42 78l-471 492l-30 202l661 239l29 -180l-480 -180l502 -550q53 -59 158 -150q44 -22 121 -19v-180q-222 0 -315 144q-61 -144 -228 -144h-536zM43 1203l633 227l4 -69l-629 -227z" />
    <glyph glyph-name="Hcircumflex" unicode="&#x622;" horiz-adv-x="575" arabic-form="final" 
d="M-118 1191q65 141 112 177q74 56 225 61q113 4 366 4h140v-175h-450q-10 -2 -106 -10q-41 -4 -60 -20q-25 -22 -61 -99zM221 275v851h180v-772q0 -123 40 -151q32 -23 163 -23v-180q-182 0 -266 46q-117 64 -117 229z" />
    <glyph glyph-name="uFE84" unicode="&#x623;" horiz-adv-x="469" arabic-form="final" 
d="M79 1298l84 48q-75 38 -75 110q0 49 34.5 84.5t83.5 35.5q24 0 69 -19l-17 -36q-22 13 -54 13q-70 0 -70 -82q0 -68 67 -68q54 0 122 42l22 -44l-246 -124zM126 275v851h180v-772q0 -125 42 -153q26 -17 161 -21v-180q-228 0 -321 88q-62 57 -62 187z" />
    <glyph glyph-name="uFE86" unicode="&#x624;" horiz-adv-x="893" arabic-form="final" 
d="M79 -275h227q125 0 211 74q92 79 92 201q-221 0 -325 58q-140 77 -140 280q0 185 62 274q75 107 253 107q221 0 295 -174q46 -109 46 -365h119v-180h-119q0 -201 -132.5 -328t-333.5 -127h-233zM155 786l104 57q-90 49 -90 131q0 66 39.5 110.5t105.5 44.5q23 0 85 -23
l-23 -47q-29 16 -51 16q-43 0 -71.5 -29t-28.5 -72q0 -81 79 -81q59 0 156 51l24 -54l-304 -154zM329 356q0 -122 90 -157q48 -19 196 -19v171q0 112 -59 155q-47 35 -90 35q-137 0 -137 -185z" />
    <glyph glyph-name="uFE88" unicode="&#x625;" horiz-adv-x="469" arabic-form="final" 
d="M126 275v851h180v-772q0 -125 42 -153q26 -17 161 -21v-180q-228 0 -321 88q-62 57 -62 187zM167 -451l84 48q-75 38 -75 110q0 49 35 84.5t84 35.5q24 0 69 -19l-18 -36q-21 13 -54 13q-70 0 -70 -82q0 -68 68 -68q54 0 121 42l23 -44l-247 -124z" />
    <glyph glyph-name="uFE8A" unicode="&#x626;" horiz-adv-x="1289" arabic-form="final" 
d="M43 63v322h180v-391q0 -129 90 -202q83 -67 215 -67h231q95 0 157 52q67 56 67 149q0 46 -53 58q-58 12 -321 16l-16 180h725v-180h-167q9 -31 9 -88q0 -159 -118 -265q-114 -102 -276 -102h-277q-217 0 -337 155q-109 140 -109 363zM121 678l104 57q-92 49 -92 130
q0 63 41.5 108.5t104.5 45.5q36 0 86 -21l-22 -47q-28 15 -54 15q-43 0 -71.5 -29t-28.5 -72q0 -81 79 -81q56 0 156 52l26 -55l-304 -152z" />
    <glyph glyph-name="uFE8B" unicode="&#x626;" horiz-adv-x="609" arabic-form="initial" 
d="M-36 0v180q283 0 315 11q60 22 60 162q0 35 -1.5 106t-1.5 106h184v-272q0 -116 -72 -202q-76 -91 -189 -91h-295zM118 669l103 56q-92 52 -92 134q0 63 41.5 107.5t104.5 44.5q24 0 85 -22l-22 -48q-26 19 -54 19q-99 0 -99 -101q0 -81 79 -81q57 0 155 51l27 -56
l-303 -153z" />
    <glyph glyph-name="uFE8C" unicode="&#x626;" horiz-adv-x="703" arabic-form="medial" 
d="M-20 0v180q29 0 123 -1l93 -1q116 -2 150 34.5t34 153.5v182q0 17 -1 22v-5h185v-247q0 -90 39 -115q28 -19 125 -23v-180h-29q-93 0 -121 8q-43 11 -103 62q-90 -70 -169 -70h-326zM113 676l103 57q-92 48 -92 130q0 63 41.5 109.5t104.5 46.5q25 0 86 -23l-22 -47
q-28 15 -54 15q-43 0 -71.5 -29.5t-28.5 -71.5q0 -82 79 -82q56 0 156 53l26 -54l-303 -154z" />
    <glyph glyph-name="uFE8E" unicode="&#x627;" horiz-adv-x="469" arabic-form="final" 
d="M126 275v851h180v-772q0 -125 42 -153q26 -17 161 -21v-180q-228 0 -321 88q-62 57 -62 187z" />
    <glyph glyph-name="uFE90" unicode="&#x628;" horiz-adv-x="1713" arabic-form="final" 
d="M81 293v272h180v-247q0 -77 30 -107.5t105 -30.5h837q75 0 103.5 30.5t28.5 107.5v247h183v-247q0 -138 198 -138v-180q-214 0 -286 70q-92 -70 -174 -70h-948q-112 0 -187 92q-70 86 -70 201zM678 -334q0 109 128 109q132 0 132 -109q0 -53 -36.5 -88.5t-88.5 -35.5
q-135 0 -135 124z" />
    <glyph glyph-name="uFE91" unicode="&#x628;" horiz-adv-x="586" arabic-form="initial" 
d="M-36 0v180q283 0 315 11q60 22 60 162q0 35 -1.5 106t-1.5 106h184v-272q0 -116 -72 -202q-76 -91 -189 -91h-295zM49 -336q0 108 129 108q130 0 130 -108q0 -53 -36.5 -88.5t-88.5 -35.5q-134 0 -134 124z" />
    <glyph glyph-name="uFE92" unicode="&#x628;" horiz-adv-x="703" arabic-form="medial" 
d="M-18 0v180q279 0 314 13q60 21 60 161q0 35 -1 105.5t-1 105.5h185v-247q0 -88 60 -117q36 -17 140 -21v-180h-56q-153 0 -233 70q-90 -70 -172 -70h-296zM54 -326q0 107 129 107q131 0 131 -107q0 -53 -36 -89t-89 -36q-135 0 -135 125z" />
    <glyph glyph-name="uFE94" unicode="&#x629;" horiz-adv-x="1031" arabic-form="final" 
d="M36 323q0 156 209 365l-51 58l121 122l539 -573q71 -75 91 -87q38 -23 123 -28v-180q-118 0 -172 31q-27 16 -188 165q-102 -216 -329 -216q-149 0 -246 97t-97 246zM121 1039l104 56q-92 49 -92 130q0 63 41.5 108.5t104.5 45.5q40 0 86 -20l-22 -48q-31 17 -54 17
q-43 0 -71.5 -30t-28.5 -73q0 -80 79 -80q58 0 156 51l26 -53l-304 -154zM216 311q0 -70 47 -113.5t118 -43.5q69 0 120.5 44.5t51.5 112.5q0 66 -34 99l-145 144q-84 -79 -105 -106q-53 -68 -53 -137z" />
    <glyph glyph-name="uFE96" unicode="&#x62a;" horiz-adv-x="1713" arabic-form="final" 
d="M81 293v272h180v-247q0 -77 30 -107.5t105 -30.5h837q75 0 103.5 30.5t28.5 107.5v247h183v-247q0 -138 198 -138v-180q-214 0 -286 70q-92 -70 -174 -70h-948q-112 0 -187 92q-70 86 -70 201zM525 865q0 99 116 99q125 0 125 -99q0 -46 -33.5 -76t-79.5 -30
q-128 0 -128 106zM871 865q0 99 118 99q124 0 124 -99q0 -46 -33.5 -76t-80.5 -30q-128 0 -128 106z" />
    <glyph glyph-name="uFE97" unicode="&#x62a;" horiz-adv-x="680" arabic-form="initial" 
d="M-36 0v180h329q75 0 104 30.5t29 107.5v247h180v-272q0 -117 -69 -202q-74 -91 -188 -91h-385zM123 856q0 99 116 99q125 0 125 -99q0 -46 -33.5 -77t-80.5 -31q-52 0 -88 27q-39 31 -39 81zM468 856q0 99 116 99q125 0 125 -99q0 -46 -33.5 -77t-80.5 -31q-52 0 -88 27
q-39 31 -39 81z" />
    <glyph glyph-name="uFE98" unicode="&#x62a;" horiz-adv-x="739" arabic-form="medial" 
d="M-39 0v180h334q75 0 104 30.5t29 107.5v247h181v-247q0 -89 41 -117q32 -21 128 -21v-180q-111 -1 -165 9q-46 19 -93 61q-86 -70 -171 -70h-388zM141 863q0 100 115 100q124 0 124 -100q0 -47 -33 -77t-79 -30q-127 0 -127 107zM486 863q0 100 115 100q124 0 124 -100
q0 -47 -33 -77t-79 -30q-127 0 -127 107z" />
    <glyph glyph-name="uFE9A" unicode="&#x62b;" horiz-adv-x="1713" arabic-form="final" 
d="M81 293v272h180v-247q0 -77 30 -107.5t105 -30.5h837q75 0 103.5 30.5t28.5 107.5v247h183v-247q0 -138 198 -138v-180q-214 0 -286 70q-92 -70 -174 -70h-948q-112 0 -187 92q-70 86 -70 201zM520 800q0 99 115 99q124 0 124 -99q0 -45 -33.5 -77t-79.5 -32
q-50 0 -86 29q-40 31 -40 80zM689 1054q0 100 115 100q126 0 126 -100q0 -47 -34 -77.5t-81 -30.5q-126 0 -126 108zM865 800q0 99 115 99q126 0 126 -99q0 -46 -34.5 -77.5t-81.5 -31.5q-50 0 -86 29q-39 31 -39 80z" />
    <glyph glyph-name="uFE9B" unicode="&#x62b;" horiz-adv-x="680" arabic-form="initial" 
d="M-36 0v180h329q75 0 104 30.5t29 107.5v247h180v-272q0 -117 -69 -202q-74 -91 -188 -91h-385zM116 800q0 99 117 99q125 0 125 -99q0 -46 -34 -78.5t-80 -32.5q-51 0 -88 30q-40 32 -40 81zM285 1054q0 100 116 100q128 0 128 -100q0 -48 -34 -79t-82 -31q-52 0 -88 29
q-40 31 -40 81zM461 800q0 99 117 99q126 0 126 -99q0 -46 -34.5 -78.5t-80.5 -32.5q-51 0 -88 30q-40 32 -40 81z" />
    <glyph glyph-name="uFE9C" unicode="&#x62b;" horiz-adv-x="739" arabic-form="medial" 
d="M-39 0v180h334q75 0 104 30.5t29 107.5v247h181v-247q0 -89 41 -117q32 -21 128 -21v-180q-111 -1 -165 9q-46 19 -93 61q-86 -70 -171 -70h-388zM186 800q0 99 117 99q125 0 125 -99q0 -46 -34 -78.5t-80 -32.5q-51 0 -88 30q-40 32 -40 81zM355 1054q0 100 116 100
q128 0 128 -100q0 -48 -34 -79t-82 -31q-52 0 -88 29q-40 31 -40 81zM531 800q0 99 117 99q126 0 126 -99q0 -46 -34.5 -78.5t-80.5 -32.5q-51 0 -88 30q-40 32 -40 81z" />
    <glyph glyph-name="uFE9E" unicode="&#x62c;" horiz-adv-x="1104" arabic-form="final" 
d="M50 -304q0 296 264 442l551 303q-76 117 -397 109q-317 -7 -202 -7l-22 176h434q376 0 376 -371l-164 -93q22 -55 114 -70q30 -5 145 -5v-180q-164 5 -220 36q-78 43 -91 90q-10 33 -24 85l-353 -195q-240 -133 -240 -334q0 -146 114 -259.5t260 -113.5h525l15 -177h-492
q-254 0 -421 155q-172 158 -172 409zM561 -331q0 110 130 110q132 0 132 -105q0 -52 -37 -89.5t-88 -37.5q-58 0 -96 32q-41 34 -41 90z" />
    <glyph glyph-name="uFE9F" unicode="&#x62c;" horiz-adv-x="1031" arabic-form="initial" 
d="M-43 0v180q349 0 493 68q11 5 130 68l220 123q-35 74 -116 94q-35 8 -159 8l-315 2l-25 176h444q367 0 367 -371l-412 -235q-145 -83 -304 -103q-79 -10 -323 -10zM88 -326q0 112 131 112q130 0 130 -109q0 -52 -35.5 -89t-88.5 -37q-58 0 -96 32q-41 34 -41 91z" />
    <glyph glyph-name="uFEA0" unicode="&#x62c;" horiz-adv-x="1031" arabic-form="medial" 
d="M-43 0v180q348 0 493 68q30 13 350 191q-35 73 -116 94q-33 8 -159 8l-315 2l-25 176h444q367 0 367 -371l-167 -92q0 -76 230 -76v-180q-254 6 -281 118q-12 45 -23 93q-260 -154 -376 -183q-107 -28 -422 -28zM258 -338q0 110 131 110q130 0 130 -106q0 -51 -36 -88.5
t-88 -37.5q-58 0 -96 32q-41 34 -41 90z" />
    <glyph glyph-name="uFEA2" unicode="&#x62d;" horiz-adv-x="1104" arabic-form="final" 
d="M51 -275q1 1 5 39q31 249 259 374l555 303q-39 71 -120 89q-29 6 -159 10q-86 2 -321 3l-25 176h435q370 0 376 -371l-163 -93q11 -75 258 -75v-180q-272 0 -311 126q-8 25 -25 85l-351 -195q-241 -134 -241 -334q0 -145 114.5 -259t260.5 -114h525l15 -177h-494
q-286 0 -459 203q-134 157 -134 351v39z" />
    <glyph glyph-name="uFEA3" unicode="&#x62d;" horiz-adv-x="1031" arabic-form="initial" 
d="M-43 0v180h144q198 0 367 76q29 14 332 183q-29 67 -122 92q-24 6 -468 12l-25 176h444q365 0 367 -371l-412 -235q-138 -79 -304 -100q-68 -9 -323 -13z" />
    <glyph glyph-name="uFEA4" unicode="&#x62d;" horiz-adv-x="1031" arabic-form="medial" 
d="M-43 0v180h144q192 0 367 76q50 22 332 183q-30 69 -122 92q-15 4 -110 7q-48 1 -358 5l-25 176h444q361 0 367 -374l-167 -90q0 -75 230 -75v-180q-249 0 -281 118q-6 21 -13 50l-10 43q-243 -147 -377 -181q-106 -26 -421 -30z" />
    <glyph glyph-name="uFEA6" unicode="&#x62e;" horiz-adv-x="1104" arabic-form="final" 
d="M50 -304q0 296 264 442l551 303q-76 117 -397 109q-317 -7 -202 -7l-22 176h434q376 0 376 -371l-164 -93q22 -55 114 -70q30 -5 145 -5v-180q-164 5 -220 36q-78 43 -91 90q-10 33 -24 85l-353 -195q-240 -133 -240 -334q0 -146 114 -259.5t260 -113.5h525l15 -177h-492
q-254 0 -421 155q-172 158 -172 409zM478 1045q0 109 131 109q130 0 130 -109q0 -53 -36 -89.5t-89 -36.5q-136 0 -136 126z" />
    <glyph glyph-name="uFEA7" unicode="&#x62e;" horiz-adv-x="1031" arabic-form="initial" 
d="M-43 0v180q349 0 493 68q11 5 130 68l220 123q-35 74 -116 94q-35 8 -159 8l-315 2l-25 176h444q367 0 367 -371l-412 -235q-145 -83 -304 -103q-79 -10 -323 -10zM388 1041q0 108 131 108q130 0 130 -108q0 -51 -37 -88t-88 -37q-136 0 -136 125z" />
    <glyph glyph-name="uFEA8" unicode="&#x62e;" horiz-adv-x="1031" arabic-form="medial" 
d="M-43 0v180q348 0 493 68q30 13 350 191q-35 73 -116 94q-33 8 -159 8l-315 2l-25 176h444q367 0 367 -371l-167 -92q0 -76 230 -76v-180q-254 6 -281 118q-12 45 -23 93q-260 -154 -376 -183q-107 -28 -422 -28zM349 1070q0 106 129 106q131 0 131 -106q0 -53 -36 -89.5
t-89 -36.5q-58 0 -96.5 34.5t-38.5 91.5z" />
    <glyph glyph-name="uFEAA" unicode="&#x62f;" horiz-adv-x="1171" arabic-form="final" 
d="M93 180h572q99 0 99 68q0 38 -28 67l-405 431l122 122l541 -573q71 -75 97 -90q45 -25 134 -25v-180h-82q-102 0 -228 124q-81 -124 -239 -124h-558z" />
    <glyph glyph-name="uFEAC" unicode="&#x630;" horiz-adv-x="1171" arabic-form="final" 
d="M90 180h573q98 0 98 68q0 39 -26 67l-406 431l121 122l541 -573q67 -71 98 -89q45 -26 135 -26v-180h-84q-101 0 -225 124q-50 -72 -100.5 -98t-138.5 -26h-561zM214 1076q0 109 131 109q130 0 130 -109q0 -51 -36.5 -87t-88.5 -36q-136 0 -136 123z" />
    <glyph glyph-name="uFEAE" unicode="&#x631;" horiz-adv-x="915" arabic-form="final" 
d="M36 -275h248q116 0 199 73q87 76 87 191v576h180v-259q0 -122 196 -126v-180q-136 0 -193 85q0 -226 -112 -375q-123 -165 -343 -165h-233z" />
    <glyph glyph-name="uFEB0" unicode="&#x632;" horiz-adv-x="915" arabic-form="final" 
d="M36 -275h248q112 0 197 75q89 78 89 189v576h180v-259q0 -126 196 -126v-180q-142 2 -193 85q0 -226 -112 -375q-123 -165 -343 -165h-233zM481 1045q0 106 132 106q131 0 131 -106q0 -53 -36 -89.5t-89 -36.5q-138 0 -138 126z" />
    <glyph glyph-name="uFEB2" unicode="&#x633;" horiz-adv-x="2298" arabic-form="final" 
d="M45 11v374h180v-382q0 -123 81.5 -200.5t204.5 -77.5h235q126 0 207 76t81 202v562h180v-267q0 -64 45 -104t109 -40q121 0 121 112v299h180v-265q0 -62 45.5 -104t108.5 -42q123 0 123 112v299h178v-276q0 -62 66 -93q19 -8 144 -16v-180q-105 2 -141 13q-69 18 -109 83
q-80 -114 -223 -114q-134 0 -238 122q-97 -127 -229 -127q-95 0 -180 77q0 -212 -115 -355q-124 -154 -330 -154h-280q-194 0 -321 137q-123 133 -123 329z" />
    <glyph glyph-name="uFEB3" unicode="&#x633;" horiz-adv-x="1455" arabic-form="initial" 
d="M-40 0v180h216q125 0 125 134v251h177v-265q0 -64 46 -105t111 -41q123 0 123 112v299h175v-265q0 -63 45.5 -104.5t109.5 -41.5q126 0 126 112v299h176v-276q0 -134 -61 -216q-68 -93 -198 -93q-127 0 -243 121q-103 -119 -219 -119q-122 0 -245 142
q-108 -124 -235 -124h-229z" />
    <glyph glyph-name="uFEB4" unicode="&#x633;" horiz-adv-x="1561" arabic-form="medial" 
d="M-50 0v180h151q99 0 138 25q51 33 51 131v229h176v-267q0 -63 46 -103.5t109 -40.5q123 0 123 112v299h177v-265q0 -63 47 -105q44 -41 108 -41q125 0 125 112v299h178v-276q0 -63 65 -93q19 -9 145 -16v-180q-105 2 -140 13q-70 19 -106 83q-83 -116 -208 -116
q-126 0 -247 119q-105 -119 -262 -119q-146 0 -241 126q-59 -77 -201 -97q-63 -9 -234 -9z" />
    <glyph glyph-name="uFEB6" unicode="&#x634;" horiz-adv-x="2298" arabic-form="final" 
d="M39 11v374h180v-382q0 -126 80 -202t206 -76h234q123 0 206 77.5t83 200.5v562h180v-267q0 -62 43 -103t105 -41q127 0 127 112v299h180v-265q0 -65 44 -105.5t109 -40.5q124 0 124 112v299h178v-276q0 -109 210 -109v-180h-64q-125 0 -189 99q-81 -115 -224 -115
q-141 0 -236 122q-96 -126 -225 -126q-98 0 -182 74q-3 -212 -117 -354q-124 -155 -330 -155h-278q-192 0 -320 138q-124 135 -124 328zM1266 795q0 100 117 100q125 0 125 -100q0 -45 -34.5 -76t-79.5 -31q-52 0 -88 27q-40 30 -40 80zM1440 1050q0 99 121 99q45 0 81 -24
q41 -27 41 -69q0 -48 -34 -81.5t-81 -33.5q-53 0 -89 28q-39 30 -39 81zM1613 795q0 100 117 100q126 0 126 -100q0 -46 -34 -76.5t-81 -30.5q-52 0 -88 27q-40 30 -40 80z" />
    <glyph glyph-name="uFEB7" unicode="&#x634;" horiz-adv-x="1455" arabic-form="initial" 
d="M-40 0v180h216q125 0 125 131v253l177 1v-265q0 -65 44 -105.5t109 -40.5q127 0 127 112v299h175v-265q0 -64 45 -105t110 -41q126 0 126 112v299h176v-276q0 -130 -60 -213q-67 -94 -192 -94q-143 0 -248 122q-104 -120 -219 -120q-130 0 -245 142q-121 -126 -237 -126
h-229zM523 800q0 96 115 96q123 0 123 -96q0 -46 -33.5 -78.5t-79.5 -32.5q-51 0 -88 31t-37 80zM691 1054q0 97 115 97q127 0 127 -97q0 -48 -34 -79t-81 -31q-50 0 -87 30q-40 32 -40 80zM868 800q0 96 113 96q128 0 128 -96q0 -48 -33.5 -79.5t-81.5 -31.5q-50 0 -88 31
t-38 80z" />
    <glyph glyph-name="uFEB8" unicode="&#x634;" horiz-adv-x="1561" arabic-form="medial" 
d="M-50 0v180h165q93 0 124 23q51 37 51 133v229h176v-267q0 -64 47 -105q44 -39 108 -39q123 0 123 112v299h177v-265q0 -64 45.5 -105t109.5 -41q125 0 125 112v299h178v-276q0 -109 210 -109v-180h-69l-65 11q-73 13 -116 88q-83 -117 -205 -117q-128 0 -249 122
q-108 -122 -256 -122t-244 127q-69 -78 -202 -99q-63 -10 -233 -10zM475 851q0 98 116 98q125 0 125 -98q0 -46 -33.5 -78t-79.5 -32q-51 0 -88 30q-40 31 -40 80zM649 1106q0 97 121 97q46 0 81 -23q42 -26 42 -69q0 -49 -33 -82.5t-82 -33.5q-52 0 -89 29q-40 32 -40 82z
M823 851q0 98 116 98q126 0 126 -98q0 -47 -33.5 -78.5t-81.5 -31.5q-51 0 -89 30t-38 80z" />
    <glyph glyph-name="uFEBA" unicode="&#x635;" horiz-adv-x="2253" arabic-form="final" 
d="M61 31v354h175v-396q0 -110 81 -187t192 -77h252q105 0 193.5 80t88.5 184v576h181v-267q0 -117 171 -118q214 541 495 541q184 0 278 -180q42 -81 42 -205q0 -67 -27 -156h101v-180h-818q-202 0 -241 95q0 -238 -104 -384q-120 -166 -348 -166h-278q-201 0 -321 145
q-113 136 -113 341zM1579 180h347q99 0 99 181q0 178 -107 178q-157 0 -339 -359z" />
    <glyph glyph-name="uFEBB" unicode="&#x635;" horiz-adv-x="1548" arabic-form="initial" 
d="M-40 0v180h200q126 0 126 134v251h178v-231q0 -153 174 -154q208 539 497 539q66 0 140 -41q174 -98 174 -329q0 -76 -23 -158q-34 -122 -106 -161q-56 -30 -186 -30h-456q-187 0 -257 146q-107 -146 -243 -146h-218zM815 180h353q101 0 101 174q0 121 -55 166
q-23 19 -54 19q-159 0 -345 -359z" />
    <glyph glyph-name="uFEBC" unicode="&#x635;" horiz-adv-x="1561" arabic-form="medial" 
d="M-40 0v180h200q126 0 126 134v251h178v-231q0 -153 174 -154q208 539 497 539q72 0 143 -41q171 -100 171 -330q0 -69 -28 -168h168v-180h-911q-187 0 -257 146q-107 -146 -243 -146h-218zM815 180h353q101 0 101 174q0 121 -55 166q-23 19 -54 19q-159 0 -345 -359z" />
    <glyph glyph-name="uFEBE" unicode="&#x636;" horiz-adv-x="2253" arabic-form="final" 
d="M59 31v354h175v-396q0 -107 82.5 -185.5t189.5 -78.5h253q101 0 191.5 82t90.5 182v576h180v-267q0 -118 172 -118q222 541 495 541q70 0 146 -43q171 -99 171 -333q0 -86 -26 -165h104v-180h-819q-213 0 -240 95q-4 -240 -106 -384q-118 -166 -348 -166h-276
q-197 0 -320 147q-115 139 -115 339zM1578 180h346q99 0 99 174q0 185 -108 185q-87 0 -200 -139q-86 -106 -137 -220zM1601 1039q0 107 132 107q130 0 130 -107q0 -52 -37 -88t-88 -36q-137 0 -137 124z" />
    <glyph glyph-name="uFEBF" unicode="&#x636;" horiz-adv-x="1548" arabic-form="initial" 
d="M-40 0v180h200q126 0 126 131v253l178 1v-231q0 -154 176 -154q222 539 498 539q71 0 140 -41q171 -103 171 -327q0 -79 -23 -160q-33 -121 -106 -161q-55 -30 -186 -30h-456q-180 0 -259 146q-105 -146 -243 -146h-216zM764 1064q0 107 129 107q130 0 130 -107
q0 -52 -37 -88.5t-88 -36.5q-134 0 -134 125zM815 180h350q101 0 101 168q0 191 -106 191q-90 0 -204 -138q-86 -104 -141 -221z" />
    <glyph glyph-name="uFEC0" unicode="&#x636;" horiz-adv-x="1561" arabic-form="medial" 
d="M-40 0v180h200q126 0 126 131v253l178 1v-231q0 -154 176 -154q222 539 498 539q72 0 140 -41q168 -104 168 -330q0 -85 -27 -168h170v-180h-911q-180 0 -259 146q-105 -146 -243 -146h-216zM766 1068q0 108 130 108q132 0 132 -108q0 -52 -37.5 -88t-89.5 -36
q-135 0 -135 124zM815 180h350q101 0 101 168q0 191 -106 191q-90 0 -204 -138q-86 -104 -141 -221z" />
    <glyph glyph-name="uFEC2" unicode="&#x637;" horiz-adv-x="1043" arabic-form="final" 
d="M40 180h154v974h176v-643q171 208 313 208q57 0 132 -41q174 -97 174 -367q0 -58 -25 -131h97v-180h-985zM359 180h346q44 0 79 56q25 40 25 133q0 170 -109 170q-89 0 -202 -139q-84 -102 -139 -220z" />
    <glyph glyph-name="uFEC3" unicode="&#x637;" horiz-adv-x="986" arabic-form="initial" 
d="M-36 0v180h154v974h180v-643q173 205 308 205q139 0 230 -123q82 -111 82 -257t-70 -236q-77 -100 -219 -100h-665zM279 178h350q104 0 104 163q0 195 -112 195q-88 0 -203 -137q-92 -109 -139 -221z" />
    <glyph glyph-name="uFEC4" unicode="&#x637;" horiz-adv-x="949" arabic-form="medial" 
d="M-50 0v180h131v974h175v-643q172 208 314 208q58 0 133 -41q168 -94 168 -338q0 -95 -23 -160h118v-180h-1016zM245 180h348q43 0 78 56q25 40 25 133q0 170 -108 170q-89 0 -203 -139q-85 -104 -140 -220z" />
    <glyph glyph-name="uFEC6" unicode="&#x638;" horiz-adv-x="1043" arabic-form="final" 
d="M40 180h154v974h176v-643q166 208 310 208q64 0 134 -41q175 -104 175 -304q0 -118 -26 -194h98v-180h-987zM356 180h347q103 0 103 179q0 180 -107 180q-89 0 -204 -138q-91 -109 -139 -221zM570 1053q0 107 129 107q130 0 130 -107q0 -52 -37 -88.5t-88 -36.5
q-134 0 -134 125z" />
    <glyph glyph-name="uFEC7" unicode="&#x638;" horiz-adv-x="986" arabic-form="initial" 
d="M-36 0v180h154v974h180v-643q173 205 308 205q139 0 230 -123q82 -111 82 -257t-70 -236q-77 -100 -219 -100h-665zM279 178h350q104 0 104 163q0 195 -112 195q-88 0 -203 -137q-92 -109 -139 -221zM483 1036q0 107 130 107q131 0 131 -107q0 -53 -36 -89.5t-89 -36.5
q-136 0 -136 126z" />
    <glyph glyph-name="uFEC8" unicode="&#x638;" horiz-adv-x="949" arabic-form="medial" 
d="M-51 0l1 180h131v974h175v-643q166 208 312 208q66 0 132 -41q171 -108 171 -302q0 -117 -26 -196h121v-180h-1017zM244 180h346q104 0 104 179q0 180 -108 180q-88 0 -203 -138q-92 -109 -139 -221zM491 1068q0 106 130 106q132 0 132 -106q0 -53 -36.5 -90t-88.5 -37
q-137 0 -137 127z" />
    <glyph glyph-name="uFECA" unicode="&#x639;" horiz-adv-x="1115" arabic-form="final" 
d="M51 -303q0 357 472 559l-239 235l121 228h384q185 0 237 -131q17 -41 17 -68q0 -111 -64 -186q-47 -56 -165 -120q80 -34 340 -34v-180q-184 0 -266 15q-152 27 -233 118q-432 -183 -432 -456q0 -138 122 -261q108 -107 243 -107h525l18 -177h-496q-240 0 -412 163
t-172 402zM489 545l199 -209q172 95 172 155q0 25 -33 41q-27 13 -54 13h-284z" />
    <glyph glyph-name="uFECB" unicode="&#x639;" horiz-adv-x="904" arabic-form="initial" 
d="M-40 0v180h256q-56 129 -56 231t59.5 182t156.5 107q67 19 150 19q144 0 277 -133l-89 -140q-142 108 -241 108q-142 0 -142 -173q0 -75 35 -133q41 -68 112 -68h358l29 -180h-905z" />
    <glyph glyph-name="uFECC" unicode="&#x639;" horiz-adv-x="831" arabic-form="medial" 
d="M-43 0v180q251 0 316 65l-250 246l121 228h386q185 0 235 -130q16 -43 16 -69q0 -110 -61 -181q-39 -45 -155 -118q107 -41 295 -41v-180q-168 0 -235 18q-92 23 -204 113q-113 -93 -225 -120q-26 -6 -239 -11zM216 545l197 -207q173 88 173 151q0 24 -31 41
q-26 15 -52 15h-287z" />
    <glyph glyph-name="uFECE" unicode="&#x63a;" horiz-adv-x="1115" arabic-form="final" 
d="M51 -309q0 379 472 565l-239 235l121 228h384q192 0 240 -131q14 -38 14 -68q0 -28 -9 -90q-14 -98 -219 -216q89 -34 341 -34l-2 -180l-163 5q-227 8 -337 128q-433 -193 -433 -456q0 -141 112 -254.5t253 -113.5h527l18 -177h-496q-241 0 -411 158q-173 162 -173 401z
M489 545l199 -207q172 91 172 156l-9 22q-31 29 -78 29h-284zM576 1045q0 106 132 106q130 0 130 -106q0 -53 -36 -89.5t-88 -36.5q-138 0 -138 126z" />
    <glyph glyph-name="uFECF" unicode="&#x63a;" horiz-adv-x="904" arabic-form="initial" 
d="M-40 0v180h256q-58 117 -58 221q0 144 92 232t236 88q175 0 317 -135l-89 -140q-148 108 -239 108q-144 0 -144 -169q0 -78 34 -135q40 -70 113 -70h358l29 -180h-905zM338 1041q0 108 131 108q130 0 130 -108q0 -51 -37 -88t-88 -37q-136 0 -136 125z" />
    <glyph glyph-name="uFED0" unicode="&#x63a;" horiz-adv-x="831" arabic-form="medial" 
d="M-45 0l2 180q254 5 316 65q-161 163 -250 246q66 115 120 228h387q190 0 240 -130q16 -43 16 -69q0 -17 -8 -90q-12 -94 -210 -209q114 -41 292 -41v-180q-153 -1 -231 19q-103 26 -210 112q-143 -119 -276 -128q-34 -3 -82 -3h-106zM216 545l197 -207q173 90 173 151
l-10 27q-10 29 -73 29h-287zM244 1068q0 108 127 108q132 0 132 -108q0 -52 -37 -88t-88 -36q-134 0 -134 124z" />
    <glyph glyph-name="uFED2" unicode="&#x641;" horiz-adv-x="1618" arabic-form="final" 
d="M74 293v272h181v-247q0 -138 133 -138h623q-101 113 -101 246q0 134 97 216q92 77 228 77q139 0 221 -100q78 -93 78 -234q0 -112 -65 -205h174v-180q-314 0 -388 40q-25 -37 -342 -37q-45 -1 -300 -2l-299 -1q-109 0 -178 94q-62 86 -62 199zM1079 410q0 -105 182 -191
q109 67 109 166q0 66 -43.5 113t-108.5 47q-55 0 -97 -40.5t-42 -94.5zM1098 1054q0 106 130 106q131 0 131 -106q0 -53 -36 -89.5t-89 -36.5q-136 0 -136 126z" />
    <glyph glyph-name="uFED3" unicode="&#x641;" horiz-adv-x="915" arabic-form="initial" 
d="M-31 0v180h542q99 0 99 134q-140 1 -317 17q-149 55 -149 245q0 131 82 211.5t213 80.5q107 0 196 -57q143 -90 154 -302l11 -225q6 -116 -85 -202q-89 -82 -206 -82h-540zM311 588q0 -76 45 -94q19 -8 112 -9l131 -1q-7 199 -169 199q-119 0 -119 -95zM314 1098
q0 107 127 107q132 0 132 -107q0 -52 -37.5 -88.5t-89.5 -36.5q-132 0 -132 125z" />
    <glyph glyph-name="uFED4" unicode="&#x641;" horiz-adv-x="856" arabic-form="medial" 
d="M-63 0v180h266q-99 111 -99 238q0 141 92 222q89 79 232 79q134 0 218 -95q82 -90 82 -226q0 -125 -65 -218h241v-180q-20 4 -106 5l-178 3q-93 1 -171 40q-83 -48 -512 -48zM273 408q0 -111 182 -189q109 81 109 166q0 60 -44 110t-104 50q-59 0 -101 -39.5t-42 -97.5z
M298 1041q0 108 128 108q130 0 130 -108q0 -51 -36.5 -88t-88.5 -37q-133 0 -133 125z" />
    <glyph glyph-name="uFED6" unicode="&#x642;" horiz-adv-x="1350" arabic-form="final" 
d="M70 9v376h180v-396q0 -102 104 -188q86 -71 182 -71h234q116 0 196.5 77t89.5 193q-258 0 -326 25q-160 59 -160 259q0 131 99 209q90 72 225 72q159 0 255 -115q90 -107 92 -270h144v-180h-149q0 -189 -133.5 -322t-322.5 -133h-280q-182 0 -308 142q-122 137 -122 322z
M568 773q0 98 116 98q125 0 125 -98q0 -47 -33.5 -77t-80.5 -30q-127 0 -127 107zM746 290q0 -70 60 -96q32 -14 255 -14q0 86 -52.5 143.5t-138.5 57.5q-124 0 -124 -91zM915 773q0 98 116 98q125 0 125 -98q0 -47 -33.5 -77t-79.5 -30q-128 0 -128 107z" />
    <glyph glyph-name="uFED7" unicode="&#x642;" horiz-adv-x="915" arabic-form="initial" 
d="M-31 0v180h542q99 0 99 134q-140 1 -317 17q-149 55 -149 245q0 131 82 211.5t213 80.5q107 0 196 -57q143 -90 154 -302l11 -225q6 -116 -85 -202q-89 -82 -206 -82h-540zM149 1061q0 99 115 99q124 0 124 -99q0 -46 -33.5 -76t-80.5 -30q-125 0 -125 106zM311 588
q0 -76 45 -94q19 -8 112 -9l131 -1q-7 199 -169 199q-119 0 -119 -95zM494 1061q0 99 114 99q125 0 125 -99q0 -46 -33.5 -76t-80.5 -30q-125 0 -125 106z" />
    <glyph glyph-name="uFED8" unicode="&#x642;" horiz-adv-x="856" arabic-form="medial" 
d="M-63 0v180h266q-99 111 -99 238q0 141 92 222q89 79 232 79q134 0 218 -95q82 -90 82 -226q0 -125 -65 -218h241v-180q-20 4 -106 5l-178 3q-93 1 -171 40q-83 -48 -512 -48zM109 1064q0 99 114 99q125 0 125 -99q0 -47 -33.5 -76.5t-80.5 -29.5q-125 0 -125 106z
M273 408q0 -111 182 -189q109 81 109 166q0 60 -44 110t-104 50q-59 0 -101 -39.5t-42 -97.5zM453 1064q0 99 115 99q123 0 123 -99q0 -47 -32.5 -76.5t-79.5 -29.5q-126 0 -126 106z" />
    <glyph glyph-name="uFEDA" unicode="&#x643;" horiz-adv-x="1760" arabic-form="final" 
d="M76 293v272h180v-247q0 -76 29.5 -107t104.5 -31h879q90 0 90 65q0 35 -44 81l-467 492l-34 202l664 239l25 -180l-469 -175l500 -555l129 -130q33 -34 143 -39v-180q-202 0 -297 129q-48 -129 -231 -129h-944q-114 0 -188 91q-70 85 -70 202z" />
    <glyph glyph-name="uFEDB" unicode="&#x643;" horiz-adv-x="843" arabic-form="initial" 
d="M-34 0v180h562q71 0 71 84q0 39 -23 62l-467 492l-30 201l660 240l27 -180l-466 -175l369 -413q39 -44 100 -142q34 -55 34 -104q0 -245 -275 -245h-562z" />
    <glyph glyph-name="uFEDC" unicode="&#x643;" horiz-adv-x="1009" arabic-form="medial" 
d="M-43 0v180h537q71 0 71 93q0 32 -20 53l-469 492l-33 202l662 239l25 -180l-469 -175l497 -550q84 -94 132 -125q71 -46 174 -49v-180q-230 0 -325 131q-53 -131 -248 -131h-534z" />
    <glyph glyph-name="uFEDE" unicode="&#x644;" horiz-adv-x="1408" arabic-form="final" 
d="M79 9v376h176v-396q0 -116 88 -192q84 -72 202 -72h233q117 0 198 73q85 75 85 191v1165h180v-848q0 -124 205 -126v-180q-145 0 -202 85q0 -226 -111 -375q-124 -165 -344 -165h-278q-185 0 -311 141q-121 136 -121 323z" />
    <glyph glyph-name="uFEDF" unicode="&#x644;" horiz-adv-x="516" arabic-form="initial" 
d="M-36 0v180q140 0 122 -1q87 6 110 44q15 23 15 131v800h177v-879q0 -130 -77.5 -202.5t-209.5 -72.5h-137z" />
    <glyph glyph-name="uFEE0" unicode="&#x644;" horiz-adv-x="598" arabic-form="medial" 
d="M-34 0v180q54 -2 129 -2q86 0 114 47q19 32 19 129v800h180v-836q0 -98 58 -122q28 -11 169 -16v-180h-54q-175 0 -261 70q-65 -54 -117 -64q-34 -6 -237 -6z" />
    <glyph glyph-name="uFEE2" unicode="&#x645;" horiz-adv-x="1233" arabic-form="final" 
d="M74 343q0 175 88 273q93 103 266 103h365q288 0 288 -421q0 -116 200 -118v-180q-112 0 -158 20q-59 25 -114 111q-56 -142 -228 -142q-147 0 -239 93t-92 241v220q-82 0 -139 -48q-61 -50 -61 -130v-820h-176v798zM624 290q0 -57 45 -91q41 -30 100 -30q137 0 137 162
q0 138 -30 169q-38 40 -252 43v-253z" />
    <glyph glyph-name="uFEE3" unicode="&#x645;" horiz-adv-x="843" arabic-form="initial" 
d="M-39 0v180q153 0 179 30q8 10 11 138q9 371 323 371q150 0 234 -120q73 -105 73 -261q0 -155 -77 -254q-84 -109 -235 -109q-115 0 -203 68q-87 -38 -305 -43zM311 341q0 -187 158 -187q155 0 155 194q0 195 -155 195q-158 0 -158 -202z" />
    <glyph glyph-name="uFEE4" unicode="&#x645;" horiz-adv-x="904" arabic-form="medial" 
d="M-48 0v180q150 0 177 30q14 15 14 138q0 164 77 262q85 109 245 109q146 0 230 -116q75 -103 78 -255q1 -57 2 -73q6 -65 48 -82q20 -9 107 -13v-180q-89 0 -129 16q-52 22 -93 88q-77 -129 -248 -129q-63 0 -131.5 38t-103.5 91q-20 -102 -273 -104zM300 341
q0 -187 158 -187q152 0 152 199q0 190 -152 190q-158 0 -158 -202z" />
    <glyph glyph-name="uFEE6" unicode="&#x646;" horiz-adv-x="1361" arabic-form="final" 
d="M76 9v376h177v-396q0 -116 88 -192q84 -72 202 -72h232q117 0 200.5 74t83.5 190v576h180v-259q0 -124 201 -126v-180q-148 0 -199 85q0 -226 -111 -375q-123 -165 -344 -165h-277q-185 0 -311 141q-122 136 -122 323zM475 606q0 108 131 108q130 0 130 -108
q0 -51 -36.5 -87t-88.5 -36q-136 0 -136 123z" />
    <glyph glyph-name="uFEE7" unicode="&#x646;" horiz-adv-x="586" arabic-form="initial" 
d="M-36 0v180q283 0 315 11q60 22 60 162q0 35 -1.5 106t-1.5 106h184v-272q0 -116 -72 -202q-76 -91 -189 -91h-295zM81 848q0 107 130 107q132 0 132 -107q0 -53 -36.5 -90t-88.5 -37q-137 0 -137 127z" />
    <glyph glyph-name="uFEE8" unicode="&#x646;" horiz-adv-x="703" arabic-form="medial" 
d="M-43 0v180q279 0 314 13q60 21 60 160q0 35 -1 106t-1 106h182v-247q0 -133 224 -138v-180h-59q-170 0 -250 70q-90 -70 -173 -70h-296zM81 848q0 107 130 107q132 0 132 -107q0 -53 -36.5 -90t-88.5 -37q-137 0 -137 127z" />
    <glyph glyph-name="uFEEA" unicode="&#x647;" horiz-adv-x="1031" arabic-form="final" 
d="M36 323q0 156 209 365l-51 58l121 122l539 -573q71 -75 91 -87q38 -23 123 -28v-180q-118 0 -172 31q-27 16 -188 165q-102 -216 -329 -216q-149 0 -246 97t-97 246zM216 311q0 -70 47 -113.5t118 -43.5q69 0 120.5 44.5t51.5 112.5q0 66 -34 99l-145 144
q-84 -79 -105 -106q-53 -68 -53 -137z" />
    <glyph glyph-name="uFEEB" unicode="&#x647;" horiz-adv-x="1171" arabic-form="initial" 
d="M-31 0v180h250q-99 130 -99 248q0 128 82 210.5t211 82.5q116 0 216 -97l-118 122l135 122q447 -427 447 -629q0 -119 -89 -214t-206 -95q-143 0 -370 133q-116 -59 -259 -60zM289 428q0 -117 144 -173q115 51 115 160q0 61 -45 101t-107 40q-49 0 -79 -41
q-28 -37 -28 -87zM610 176q102 -61 176 -61q118 0 118 113q0 108 -238 348q55 -62 55 -171q0 -172 -111 -229z" />
    <glyph glyph-name="uFEEC" unicode="&#x647;" horiz-adv-x="798" arabic-form="medial" 
d="M-54 0v180h147q-14 184 -14 201q0 335 336 335q136 0 218 -74q86 -78 86 -212q0 -152 -120 -250h232v-180h-227q132 -91 132 -264q0 -209 -265 -209q-322 0 -350 277l-20 196h-155zM259 321q0 -14 5 -141q115 0 197 68q89 72 89 185q0 117 -120 117q-171 0 -171 -229z
M268 14q0 -334 183 -334q135 0 135 112q0 104 -111 168q-94 54 -207 54z" />
    <glyph glyph-name="uFEEE" unicode="&#x648;" horiz-adv-x="893" arabic-form="final" 
d="M79 -275h227q128 0 213 74t90 201q-223 0 -328 61q-137 80 -137 287q0 226 109 317q63 54 213 54q215 0 288 -178q42 -104 46 -361h119v-180h-119q0 -198 -132.5 -326.5t-331.5 -128.5h-232zM329 344q0 -114 95 -146q51 -18 191 -18v171q0 75 -36 129q-41 61 -113 61
q-86 0 -116 -58q-21 -42 -21 -139z" />
    <glyph glyph-name="uFEF0" unicode="&#x649;" horiz-adv-x="1289" arabic-form="final" 
d="M43 63v322h180v-391q0 -129 90 -202q83 -67 215 -67h231q96 0 158 51q66 55 66 150q0 58 -165 71q-30 3 -209 3l-16 180h725v-180h-167l9 -88q0 -157 -119 -264q-116 -103 -275 -103h-277q-213 0 -335 156q-111 143 -111 362z" />
    <glyph glyph-name="uFEF2" unicode="&#x64a;" horiz-adv-x="1289" arabic-form="final" 
d="M43 63v322h180v-391q0 -129 90 -202q83 -67 215 -67h231q96 0 158 51q66 55 66 150q0 58 -165 71q-30 3 -209 3l-16 180h725v-180h-167l9 -88q0 -157 -119 -264q-116 -103 -275 -103h-277q-213 0 -335 156q-111 143 -111 362z" />
    <glyph glyph-name="uFEF3" unicode="&#x64a;" horiz-adv-x="680" arabic-form="initial" 
d="M-36 0v180h329q75 0 104 30.5t29 107.5v247h180v-272q0 -117 -69 -202q-74 -91 -188 -91h-385zM-9 -345q0 100 114 100q125 0 125 -100q0 -46 -33.5 -76t-80.5 -30q-50 0 -86 27q-39 30 -39 79zM336 -345q0 100 114 100q125 0 125 -100q0 -46 -33.5 -76t-80.5 -30
q-50 0 -86 27q-39 30 -39 79z" />
    <glyph glyph-name="uFEF4" unicode="&#x64a;" horiz-adv-x="739" arabic-form="medial" 
d="M-40 0v180h333q75 0 104 30.5t29 107.5v247h180v-247q0 -89 42 -117q32 -21 127 -21v-180q-110 -1 -165 9q-43 17 -91 61q-86 -70 -171 -70h-388zM31 -343q0 99 115 99q124 0 124 -99q0 -46 -33 -76t-79 -30q-51 0 -87 28q-40 30 -40 78zM376 -343q0 99 115 99
q124 0 124 -99q0 -46 -33 -76t-79 -30q-51 0 -87 28q-40 30 -40 78z" />
    <glyph glyph-name=".notdef" horiz-adv-x="1024" 
d="M128 0v1360h768v-1360h-768zM256 128h512v1104h-512v-1104z" />
    <glyph glyph-name=".null" 
 />
    <glyph glyph-name="uni000D" unicode="&#xd;" horiz-adv-x="469" 
 />
    <glyph glyph-name="space" unicode=" " horiz-adv-x="469" 
 />
    <glyph glyph-name="exclam" unicode="!" horiz-adv-x="469" 
d="M109 120q0 110 135 110q127 0 127 -110q0 -120 -137 -120q-125 0 -125 120zM149 759v395h177v-395q0 -12 -12 -136l-28 -274h-95z" />
    <glyph glyph-name="percent" unicode="%" horiz-adv-x="1471" 
d="M68 663q0 111 88 194.5t200 83.5q108 0 197.5 -88t89.5 -195q0 -110 -95 -191q-90 -77 -202 -77q-110 0 -194 81.5t-84 191.5zM189 653q0 -64 54 -107q50 -41 115 -41q64 0 111 47.5t47 111.5q0 62 -53 109t-117 47q-65 0 -111 -51t-46 -116zM309 -244l640 1174h180
l-646 -1174h-174zM826 50q0 108 91.5 197t200.5 89q113 0 198 -88.5t85 -202.5q0 -109 -92 -188q-87 -76 -198 -76q-108 0 -195 80q-90 81 -90 189zM949 45q0 -73 76 -121q43 -28 93 -28q61 0 110.5 49t49.5 111q0 60 -50.5 109t-109.5 49q-66 0 -117.5 -51.5t-51.5 -117.5z
" />
    <glyph glyph-name="parenleft" unicode="(" horiz-adv-x="721" 
d="M135 290q0 299 120 585q82 197 293 524h95q-162 -313 -229 -511q-94 -277 -94 -550q0 -346 74 -619q73 -266 246 -573h-99q-205 295 -297 539q-109 286 -109 605z" />
    <glyph glyph-name="parenright" unicode=")" horiz-adv-x="721" 
d="M76 -854q323 599 323 1062q0 371 -73 621q-58 199 -247 570h99q204 -303 295 -535q111 -286 111 -598q0 -307 -118 -591q-82 -199 -295 -529h-95z" />
    <glyph glyph-name="asterisk" unicode="*" horiz-adv-x="680" 
d="M48 109l236 135l-236 137l25 43l236 -134v271h45v-271l234 136l22 -41l-234 -137l234 -135l-20 -40l-236 132v-273h-45v273l-235 -135zM284 244l25 -39h45l22 43l-22 42h-45z" />
    <glyph glyph-name="plus" unicode="+" horiz-adv-x="1275" 
d="M90 239v176h464v464h171v-464h466v-176h-466v-464h-171v464h-464z" />
    <glyph glyph-name="comma" unicode="," horiz-adv-x="264" 
d="M4 34q0 110 136 110q82 0 109 -43q19 -30 19 -117q0 -162 -25 -228q-43 -111 -177 -124v65q79 8 107 75q14 38 18 138q-187 0 -187 124z" />
    <glyph glyph-name="hyphen" unicode="-" horiz-adv-x="1149" 
d="M95 239v177h981v-177h-981z" />
    <glyph glyph-name="period" unicode="." horiz-adv-x="564" 
d="M151 96q0 112 138 112q127 0 127 -112q0 -119 -137 -119q-128 0 -128 119z" />
    <glyph glyph-name="slash" unicode="/" horiz-adv-x="971" 
d="M84 -244l640 1174h180l-648 -1174h-172z" />
    <glyph glyph-name="zero" unicode="0" horiz-adv-x="1210" 
d="M284 323q0 126 100.5 223.5t226.5 97.5q122 0 218.5 -102t96.5 -224q0 -118 -100.5 -206.5t-219.5 -88.5q-124 0 -223 88.5t-99 211.5zM424 316q0 -69 60 -118q56 -45 127 -45q67 0 118.5 51.5t51.5 118.5q0 71 -54 124t-126 53q-71 0 -124 -56t-53 -128z" />
    <glyph glyph-name="zero" unicode="&#x660;" horiz-adv-x="1210" 
d="M284 323q0 126 100.5 223.5t226.5 97.5q122 0 218.5 -102t96.5 -224q0 -118 -100.5 -206.5t-219.5 -88.5q-124 0 -223 88.5t-99 211.5zM424 316q0 -69 60 -118q56 -45 127 -45q67 0 118.5 51.5t51.5 118.5q0 71 -54 124t-126 53q-71 0 -124 -56t-53 -128z" />
    <glyph glyph-name="one" unicode="1" horiz-adv-x="1210" 
d="M475 913l171 56l62 -241q1 -5 8 -65q20 -161 20 -312v-551h-175v551q0 276 -86 562z" />
    <glyph glyph-name="one" unicode="&#x661;" horiz-adv-x="1210" 
d="M475 913l171 56l62 -241q1 -5 8 -65q20 -161 20 -312v-551h-175v551q0 276 -86 562z" />
    <glyph glyph-name="two" unicode="2" horiz-adv-x="1210" 
d="M253 913l173 56l72 -295q27 -113 133 -113q74 0 115 59q29 42 24 83l-29 215l167 53q50 -246 50 -330q0 -100 -89 -170q-83 -66 -185 -66q-77 0 -168 59l3 -664h-181v525q0 357 -85 588z" />
    <glyph glyph-name="two" unicode="&#x662;" horiz-adv-x="1210" 
d="M253 913l173 56l72 -295q27 -113 133 -113q74 0 115 59q29 42 24 83l-29 215l167 53q50 -246 50 -330q0 -100 -89 -170q-83 -66 -185 -66q-77 0 -168 59l3 -664h-181v525q0 357 -85 588z" />
    <glyph glyph-name="three" unicode="3" horiz-adv-x="1210" 
d="M50 913l178 56l67 -295q26 -113 140 -113q58 0 95 38q51 51 43 104l-34 215l169 62q41 -213 41 -304q0 -11 -3 -63q46 -57 115 -57q52 0 90.5 37.5t38.5 89.5q0 10 -1 20l-29 215l166 51l34 -291q1 -11 1 -24q0 -98 -82 -167q-78 -66 -178 -66q-111 0 -221 124
q0 -130 -189 -130q-94 0 -177 46l1 -661h-175v525q0 334 -90 588z" />
    <glyph glyph-name="three" unicode="&#x663;" horiz-adv-x="1210" 
d="M50 913l178 56l67 -295q26 -113 140 -113q58 0 95 38q51 51 43 104l-34 215l169 62q41 -213 41 -304q0 -11 -3 -63q46 -57 115 -57q52 0 90.5 37.5t38.5 89.5q0 10 -1 20l-29 215l166 51l34 -291q1 -11 1 -24q0 -98 -82 -167q-78 -66 -178 -66q-111 0 -221 124
q0 -130 -189 -130q-94 0 -177 46l1 -661h-175v525q0 334 -90 588z" />
    <glyph glyph-name="four" unicode="4" horiz-adv-x="1210" 
d="M135 913l169 56q51 -188 79 -351l92 -43q0 403 328 403q102 0 217 -57l-60 -155q-74 54 -151 54q-72 0 -126 -48.5t-54 -120.5q0 -117 135 -117q102 0 255 76l56 -144q-194 -90 -370 -90q-150 0 -311 70l2 -646h-175v538q0 264 -86 575z" />
    <glyph glyph-name="four" unicode="&#x664;" horiz-adv-x="1210" 
d="M135 913l169 56q51 -188 79 -351l92 -43q0 403 328 403q102 0 217 -57l-60 -155q-74 54 -151 54q-72 0 -126 -48.5t-54 -120.5q0 -117 135 -117q102 0 255 76l56 -144q-194 -90 -370 -90q-150 0 -311 70l2 -646h-175v538q0 264 -86 575z" />
    <glyph glyph-name="five" unicode="5" horiz-adv-x="1210" 
d="M48 104q0 220 177 439l196 241l-70 50l115 137q697 -520 697 -897q0 -145 -106 -233q-99 -82 -247 -82q-133 0 -224 70q-126 -73 -245 -73q-136 0 -219 108q-74 99 -74 240zM236 121q0 -169 152 -169q139 0 140 158q-2 11 -9 68h177q12 -24 12 -69q0 -85 -19 -120
q53 -34 117 -34q168 0 168 163q0 212 -420 560q-318 -334 -318 -557z" />
    <glyph glyph-name="five" unicode="&#x665;" horiz-adv-x="1210" 
d="M48 104q0 220 177 439l196 241l-70 50l115 137q697 -520 697 -897q0 -145 -106 -233q-99 -82 -247 -82q-133 0 -224 70q-126 -73 -245 -73q-136 0 -219 108q-74 99 -74 240zM236 121q0 -169 152 -169q139 0 140 158q-2 11 -9 68h177q12 -24 12 -69q0 -85 -19 -120
q53 -34 117 -34q168 0 168 163q0 212 -420 560q-318 -334 -318 -557z" />
    <glyph glyph-name="six" unicode="6" horiz-adv-x="1210" 
d="M239 655q0 141 88.5 234.5t228.5 93.5q99 0 225 -65l-57 -160q-75 40 -145 40q-67 0 -113.5 -42t-46.5 -107q0 -144 164 -144q111 0 243 85l145 -107q-72 -64 -140 -147l-151 -185q-117 -143 -261 -396l-158 96q85 163 327 480q-157 0 -251 83q-98 86 -98 241z" />
    <glyph glyph-name="six" unicode="&#x666;" horiz-adv-x="1210" 
d="M239 655q0 141 88.5 234.5t228.5 93.5q99 0 225 -65l-57 -160q-75 40 -145 40q-67 0 -113.5 -42t-46.5 -107q0 -144 164 -144q111 0 243 85l145 -107q-72 -64 -140 -147l-151 -185q-117 -143 -261 -396l-158 96q85 163 327 480q-157 0 -251 83q-98 86 -98 241z" />
    <glyph glyph-name="seven" unicode="7" horiz-adv-x="1210" 
d="M104 890l157 81q166 -283 233 -462q6 -16 34 -119l70 -259l20 -2q73 363 193 581l144 261l154 -78l-149 -255q-72 -123 -129 -264q-90 -222 -157 -574h-140q-45 306 -155 570q-84 202 -275 520z" />
    <glyph glyph-name="seven" unicode="&#x667;" horiz-adv-x="1210" 
d="M104 890l157 81q166 -283 233 -462q6 -16 34 -119l70 -259l20 -2q73 363 193 581l144 261l154 -78l-149 -255q-72 -123 -129 -264q-90 -222 -157 -574h-140q-45 306 -155 570q-84 202 -275 520z" />
    <glyph glyph-name="eight" unicode="8" horiz-adv-x="1210" 
d="M101 -110q198 332 277 520q102 244 158 570l140 -2q73 -446 262 -793q56 -104 171 -298q-83 -37 -156 -81q-165 282 -232 464q-12 32 -38 134l-65 245l-20 2q-37 -164 -104 -378q-52 -163 -235 -467q-88 49 -158 84z" />
    <glyph glyph-name="eight" unicode="&#x668;" horiz-adv-x="1210" 
d="M101 -110q198 332 277 520q102 244 158 570l140 -2q73 -446 262 -793q56 -104 171 -298q-83 -37 -156 -81q-165 282 -232 464q-12 32 -38 134l-65 245l-20 2q-37 -164 -104 -378q-52 -163 -235 -467q-88 49 -158 84z" />
    <glyph glyph-name="nine" unicode="9" horiz-adv-x="1210" 
d="M279 649q0 140 85 235q88 99 226 99q85 0 185 -59q158 -93 158 -539v-585h-175v615q-109 -36 -202 -36q-129 0 -203 71t-74 199zM433 655q0 -119 121 -119q76 0 185 63q-7 46 -26 134q-24 64 -73 76q-4 1 -59 11q-68 0 -108 -48t-40 -117z" />
    <glyph glyph-name="nine" unicode="&#x669;" horiz-adv-x="1210" 
d="M279 649q0 140 85 235q88 99 226 99q85 0 185 -59q158 -93 158 -539v-585h-175v615q-109 -36 -202 -36q-129 0 -203 71t-74 199zM433 655q0 -119 121 -119q76 0 185 63q-7 46 -26 134q-24 64 -73 76q-4 1 -59 11q-68 0 -108 -48t-40 -117z" />
    <glyph glyph-name="colon" unicode=":" horiz-adv-x="564" 
d="M160 543q0 111 140 111q126 0 126 -111q0 -119 -136 -119q-130 0 -130 119zM163 120q0 110 140 110q125 0 125 -110q0 -120 -138 -120q-54 0 -90.5 33t-36.5 87z" />
    <glyph glyph-name="equal" unicode="=" horiz-adv-x="1225" 
d="M121 0v176h989v-176h-989zM121 374v176h989v-176h-989z" />
    <glyph glyph-name="bracketleft" unicode="[" horiz-adv-x="770" 
d="M159 -834l2 2603h535v-169h-350l-3 -2265h353v-169h-537z" />
    <glyph glyph-name="bracketright" unicode="]" horiz-adv-x="783" 
d="M157 -676v-169h536l-2 2605h-534v-169h350l2 -2267h-352z" />
    <glyph glyph-name="braceleft" unicode="{" horiz-adv-x="1050" 
d="M97 550v51q328 72 328 302q0 58 -23 166q-36 169 -36 259q0 211 137 356q132 138 344 171v-53q-130 -18 -215 -100q-92 -88 -92 -215q0 -61 18 -156q41 -219 41 -290q0 -309 -392 -463q387 -159 387 -481q0 -68 -36 -246q-23 -114 -23 -184q0 -249 312 -320v-52
q-212 39 -345 177q-141 146 -141 356q0 88 36 243q28 122 28 154q0 133 -99 225q-92 84 -229 100z" />
    <glyph glyph-name="braceright" unicode="}" horiz-adv-x="970" 
d="M131 -651v-49q211 37 344 175q139 146 139 355q0 94 -33 244q-28 126 -28 153q0 134 100 226q92 84 228 99v52q-328 71 -328 302q0 70 20 166q39 180 39 259q0 211 -138 355q-131 138 -343 175v-57q132 -21 215 -100q89 -85 89 -212q0 -77 -15 -159q-44 -233 -44 -289
q0 -307 395 -461q-390 -161 -390 -481q0 -64 39 -246q23 -109 23 -187q0 -248 -312 -320z" />
    <glyph glyph-name="uni00A0" unicode="&#xa0;" horiz-adv-x="469" 
 />
    <glyph glyph-name="guillemotleft" unicode="&#xab;" horiz-adv-x="926" 
d="M96 255v194l323 250v-145l-264 -200l264 -203v-146zM509 255v194l320 250v-145l-259 -200l259 -203v-146z" />
    <glyph glyph-name="uni00AD" unicode="&#xad;" horiz-adv-x="1149" 
d="M95 239v177h981v-177h-981z" />
    <glyph glyph-name="periodcentered" unicode="&#xb7;" horiz-adv-x="512" 
d="M156 758q0 107 97 107q95 0 95 -107q0 -43 -26 -74t-69 -31q-97 0 -97 105z" />
    <glyph glyph-name="periodcentered" unicode="&#x2d9;" horiz-adv-x="512" 
d="M156 758q0 107 97 107q95 0 95 -107q0 -43 -26 -74t-69 -31q-97 0 -97 105z" />
    <glyph glyph-name="guillemotright" unicode="&#xbb;" horiz-adv-x="926" 
d="M95 5v144l259 200l-259 204v146l320 -250v-194zM505 5v144l264 200l-264 204v146l321 -250v-194z" />
    <glyph glyph-name="multiply" unicode="&#xd7;" horiz-adv-x="1275" 
d="M99 744l124 124l417 -418l419 420l121 -126l-414 -419l414 -415l-126 -126l-410 416l-419 -416l-124 123l419 418z" />
    <glyph glyph-name="divide" unicode="&#xf7;" horiz-adv-x="1171" 
d="M73 225v179h1022v-179h-1022zM435 -113q0 57 40 93t98 36q53 0 90 -41t37 -95q0 -55 -42 -94t-97 -39q-54 0 -91 44q-35 41 -35 96zM444 749q0 52 39.5 89.5t92.5 37.5t93.5 -39.5t40.5 -92.5q0 -55 -42.5 -97.5t-96.5 -42.5q-56 0 -93 45q-34 42 -34 100z" />
    <glyph glyph-name="u060C" unicode="&#x60c;" horiz-adv-x="516" 
d="M124 160q0 162 25 228q42 111 176 123v-65q-79 -7 -106 -75q-15 -37 -19 -137q188 0 188 -124q0 -110 -137 -110q-81 0 -107 43q-20 32 -20 117z" />
    <glyph glyph-name="u061B" unicode="&#x61b;" horiz-adv-x="564" 
d="M155 565q0 161 25 225q41 105 176 123v-62q-80 -17 -105 -77q-15 -36 -18 -134q191 0 191 -124q0 -111 -136 -111q-86 0 -113 43q-20 31 -20 117zM160 110q0 120 140 120q126 0 126 -120q0 -110 -136 -110q-130 0 -130 110z" />
    <glyph glyph-name="u061F" unicode="&#x61f;" horiz-adv-x="809" 
d="M76 866q0 141 98 219q90 71 235 71q102 0 186 -48q91 -53 123 -144q21 -62 23 -189h-176q0 223 -157 223q-147 0 -147 -138q0 -51 23 -76l87 -96q84 -92 102 -138q23 -61 32 -212h-171q0 105 -30 167q-21 44 -93 110q-76 73 -98 109q-37 58 -37 142zM293 109
q0 101 120 101q121 0 121 -101q0 -50 -40 -81q-36 -28 -88 -28q-45 0 -79 32t-34 77z" />
    <glyph glyph-name="u0621" unicode="&#x621;" horiz-adv-x="530" 
d="M63 61l131 70q-115 61 -115 169q0 81 51 133.5t131 52.5q53 0 104 -22l-27 -59q-36 21 -74 21q-121 0 -121 -126q0 -106 102 -106q79 0 193 62l33 -62l-376 -194z" />
    <glyph glyph-name="u0622" unicode="&#x622;" horiz-adv-x="669" 
d="M-166 1188q65 139 116 180q61 48 236 61q53 4 257 4q76 0 233 -3v-177h-451q-30 0 -105 -9q-42 -5 -61 -20q-24 -19 -62 -100zM255 0v1154h175v-1154h-175z" />
    <glyph glyph-name="u0623" unicode="&#x623;" horiz-adv-x="575" 
d="M153 1306l83 47q-75 39 -75 110q0 49 35 84.5t84 35.5q24 0 69 -19l-18 -36q-21 14 -53 14q-70 0 -70 -83q0 -67 67 -67q54 0 121 41l23 -44l-246 -123zM199 0v1154h175v-1154h-175z" />
    <glyph glyph-name="u0624" unicode="&#x624;" horiz-adv-x="893" 
d="M93 -275h227q124 0 210 75q90 78 90 200q-218 0 -322 59q-140 78 -140 279q0 186 61 275q74 108 252 108q216 0 288 -165q44 -101 44 -353v-226q0 -186 -136 -310q-132 -122 -319 -122h-233zM124 786l104 57q-93 48 -93 131q0 64 41.5 109.5t104.5 45.5q25 0 87 -23
l-23 -47q-25 19 -55 19q-43 0 -71 -30t-28 -73q0 -81 79 -81q56 0 156 52l27 -56l-304 -154zM343 356q0 -122 86 -157q46 -19 192 -19v185q0 176 -141 176q-137 0 -137 -185z" />
    <glyph glyph-name="u0625" unicode="&#x625;" horiz-adv-x="575" 
d="M182 -429l84 48q-75 38 -75 110q0 49 35 84.5t84 35.5q23 0 68 -19l-17 -36q-21 13 -54 13q-70 0 -70 -82q0 -68 68 -68q53 0 121 42l22 -44l-246 -124zM199 0v1154h175v-1154h-175z" />
    <glyph glyph-name="u0626" unicode="&#x626;" horiz-adv-x="1289" 
d="M79 9v372h169v-392q0 -122 87 -197q82 -71 206 -71h232q99 0 186 70q94 74 94 170q0 89 -64 109q-56 17 -354 18v308q0 137 90.5 230t227.5 93h216l7 -169h-216q-105 0 -139 -101q-17 -53 -17 -190q262 -5 327 -43q94 -53 94 -207q0 -205 -117 -332q-122 -132 -324 -132
h-279q-188 0 -310 140q-116 133 -116 324zM115 674l104 56q-90 50 -90 130q0 66 39 111t105 45q24 0 86 -22l-23 -48q-30 17 -55 17q-42 0 -70 -30t-28 -73q0 -80 76 -80q62 0 160 51l25 -53l-304 -154z" />
    <glyph glyph-name="u0627" unicode="&#x627;" horiz-adv-x="575" 
d="M199 0v1154h175v-1154h-175z" />
    <glyph glyph-name="u0628" unicode="&#x628;" horiz-adv-x="1606" 
d="M73 293v272h180v-247q0 -76 28.5 -107t103.5 -31h840q75 0 104.5 31t29.5 107v247h182v-272q0 -114 -72 -201q-76 -92 -188 -92h-950q-115 0 -189 90q-69 84 -69 203zM719 -326q0 105 129 105q130 0 130 -105q0 -52 -37 -89.5t-88 -37.5q-134 0 -134 127z" />
    <glyph glyph-name="u062A" unicode="&#x62a;" horiz-adv-x="1606" 
d="M73 293v272h180v-247q0 -76 28.5 -107t103.5 -31h840q75 0 104.5 31t29.5 107v247h182v-272q0 -114 -72 -201q-76 -92 -188 -92h-950q-115 0 -189 90q-69 84 -69 203zM480 865q0 98 114 98q125 0 125 -98q0 -46 -33 -77.5t-80 -31.5q-126 0 -126 109zM825 865
q0 98 114 98q125 0 125 -98q0 -46 -33.5 -77.5t-80.5 -31.5q-125 0 -125 109z" />
    <glyph glyph-name="u062B" unicode="&#x62b;" horiz-adv-x="1606" 
d="M73 293v272h180v-247q0 -76 28.5 -107t103.5 -31h840q75 0 104.5 31t29.5 107v247h182v-272q0 -114 -72 -201q-76 -92 -188 -92h-950q-115 0 -189 90q-69 84 -69 203zM491 800q0 99 114 99q125 0 125 -99q0 -45 -34 -77t-80 -32q-50 0 -86 29q-39 31 -39 80zM660 1054
q0 100 115 100q126 0 126 -100q0 -47 -34.5 -77.5t-81.5 -30.5q-50 0 -86 28q-39 31 -39 80zM836 800q0 99 114 99q126 0 126 -99q0 -46 -34 -77.5t-81 -31.5q-50 0 -86 29q-39 31 -39 80z" />
    <glyph glyph-name="u062C" unicode="&#x62c;" horiz-adv-x="1104" 
d="M43 -304q0 296 263 442l550 303q-40 75 -121 89q-74 12 -476 13l-23 176h435q376 0 377 -371l-593 -332q-241 -135 -241 -334q0 -145 114 -259t260 -114h525l16 -177h-494q-253 0 -420 155q-172 158 -172 409zM554 -340q0 112 131 112q130 0 130 -108q0 -53 -35.5 -90
t-88.5 -37q-58 0 -96 32q-41 34 -41 91z" />
    <glyph glyph-name="u062D" unicode="&#x62d;" horiz-adv-x="1104" 
d="M45 -275q1 4 5 39q31 248 259 374l551 303q-61 109 -344 109h-56l-196 -4v-3l-36 1q13 2 36 2l-25 173h435q370 0 376 -371l-592 -332q-242 -135 -242 -334q0 -143 115 -258t259 -115h525l16 -177h-493q-288 0 -460 203q-133 155 -133 351v39z" />
    <glyph glyph-name="u062E" unicode="&#x62e;" horiz-adv-x="1104" 
d="M43 -304q0 296 263 442l550 303q-40 75 -121 89q-74 12 -476 13l-23 176h435q376 0 377 -371l-593 -332q-241 -135 -241 -334q0 -145 114 -259t260 -114h525l16 -177h-494q-253 0 -420 155q-172 158 -172 409zM495 1045q0 106 131 106q132 0 132 -106q0 -53 -36.5 -89.5
t-88.5 -36.5q-138 0 -138 126z" />
    <glyph glyph-name="u062F" unicode="&#x62f;" horiz-adv-x="986" 
d="M95 180h571q100 0 100 70q0 36 -27 65l-405 431l121 122l405 -429q84 -89 84 -204q0 -108 -81 -174q-75 -61 -185 -61h-558z" />
    <glyph glyph-name="u0630" unicode="&#x630;" horiz-adv-x="986" 
d="M93 180h572q99 0 99 70q0 36 -28 65l-405 431l122 122l406 -429q82 -87 82 -198q0 -113 -77 -179q-73 -62 -188 -62h-558zM329 1169q0 106 131 106q130 0 130 -106q0 -53 -36 -89.5t-89 -36.5q-136 0 -136 126z" />
    <glyph glyph-name="u0631" unicode="&#x631;" horiz-adv-x="870" 
d="M45 -270h203q130 0 223 62q108 72 108 197v576h185v-534q0 -199 -124 -340q-129 -146 -326 -146h-240z" />
    <glyph glyph-name="u0632" unicode="&#x632;" horiz-adv-x="870" 
d="M43 -270h202q130 0 224 62q107 72 107 197v576h185v-534q0 -198 -124 -339q-130 -147 -326 -147h-238zM491 1054q0 109 132 109q131 0 131 -109q0 -53 -36 -89.5t-89 -36.5q-138 0 -138 126z" />
    <glyph glyph-name="u0633" unicode="&#x633;" horiz-adv-x="2253" 
d="M85 11v374h176v-382q0 -126 83 -203q80 -75 206 -75h234q126 0 205 76t79 202v562h180v-267q0 -62 46.5 -103t109.5 -41q124 0 124 112v299h177v-265q0 -62 45.5 -104t108.5 -42q126 0 126 112v299h178v-276q0 -126 -59 -210q-66 -97 -186 -97q-123 0 -253 122
q-87 -122 -212 -122q-98 0 -203 72q0 -215 -114 -356q-123 -153 -332 -153h-274q-195 0 -322 137q-123 133 -123 329z" />
    <glyph glyph-name="u0634" unicode="&#x634;" horiz-adv-x="2253" 
d="M85 11v374h176v-382q0 -127 82 -204q79 -74 207 -74h234q123 0 203.5 77.5t80.5 200.5v562h180v-267q0 -62 46.5 -103t109.5 -41q124 0 124 112v299h177v-265q0 -64 44.5 -105t109.5 -41q126 0 126 112v299h178v-276q0 -126 -59 -210q-66 -97 -186 -97q-132 0 -253 122
q-97 -122 -212 -122q-93 0 -203 72q-3 -212 -116 -354q-125 -155 -330 -155h-274q-192 0 -320 138q-125 134 -125 328zM1311 800q0 99 114 99q125 0 125 -99q0 -45 -34 -77t-80 -32q-50 0 -86 29q-39 31 -39 80zM1480 1054q0 100 115 100q126 0 126 -100q0 -47 -34.5 -77.5
t-81.5 -30.5q-50 0 -86 28q-39 31 -39 80zM1656 800q0 99 114 99q126 0 126 -99q0 -46 -34 -77.5t-81 -31.5q-50 0 -86 29q-39 31 -39 80z" />
    <glyph glyph-name="u0635" unicode="&#x635;" horiz-adv-x="2275" 
d="M61 31v354h180v-396q0 -101 90 -181q87 -78 189 -78h250q106 0 190 76q88 78 88 183v576h185v-267q0 -114 168 -118q79 204 189 345q151 194 316 194q144 0 235 -134q14 -21 33 -55l36 -104q14 -40 14 -108q0 -147 -85.5 -232.5t-232.5 -85.5h-488q-154 0 -188 95
q0 -219 -112 -375q-127 -175 -337 -175h-276q-194 0 -322 148q-122 141 -122 338zM1589 180h346q115 0 115 166q0 54 -30 119q-35 76 -80 76q-89 0 -206 -138q-93 -110 -145 -223z" />
    <glyph glyph-name="u0636" unicode="&#x636;" horiz-adv-x="2275" 
d="M61 31v354h180v-396q0 -103 89 -182q86 -77 190 -77h250q99 0 188.5 80.5t89.5 178.5v576h185v-267q0 -118 171 -118q225 539 504 539q143 0 235 -133q81 -118 81 -268q0 -148 -85 -233t-233 -85h-488q-163 0 -188 95q-2 -217 -115 -374q-127 -176 -334 -176h-276
q-196 0 -323 147q-121 140 -121 339zM1589 180h349q115 0 115 160q0 60 -28 123q-35 78 -85 78q-89 0 -206 -138q-95 -113 -145 -223zM1618 1053q0 107 131 107q130 0 130 -107q0 -52 -37 -88.5t-88 -36.5q-136 0 -136 125z" />
    <glyph glyph-name="u0637" unicode="&#x637;" horiz-adv-x="1054" 
d="M45 180h151v974h175v-643q172 208 312 208q138 0 230 -134q81 -119 81 -265q0 -134 -76 -224q-81 -96 -213 -96h-624zM359 180h346q44 0 79 56q25 40 25 133q0 170 -109 170q-89 0 -202 -139q-84 -102 -139 -220z" />
    <glyph glyph-name="u0638" unicode="&#x638;" horiz-adv-x="1054" 
d="M43 180h151v974h176v-643q166 208 310 208q135 0 228 -128q83 -115 83 -255q0 -143 -71 -235q-78 -101 -217 -101h-624zM356 180h347q103 0 103 179q0 180 -107 180q-89 0 -204 -138q-91 -109 -139 -221zM576 1054q0 109 132 109q130 0 130 -109q0 -53 -36 -89.5
t-88 -36.5q-138 0 -138 126z" />
    <glyph glyph-name="u0639" unicode="&#x639;" horiz-adv-x="1090" 
d="M6 -315q0 342 379 509q-59 107 -59 216q0 150 104 233q95 76 249 76q135 0 296 -135l-85 -138q-153 104 -246 104q-101 0 -128 -97q-1 -3 -4.5 -16.5t-6.5 -23.5v-30q0 -73 37 -133q43 -70 112 -70h357l25 -180h-595q-122 0 -191 -101q-61 -89 -61 -217
q0 -164 100 -268.5t264 -104.5h488l24 -177h-472q-246 0 -414 152q-173 157 -173 401z" />
    <glyph glyph-name="u063A" unicode="&#x63a;" horiz-adv-x="1090" 
d="M6 -315q0 340 379 509q-61 113 -61 202q0 146 90.5 235.5t236.5 89.5q165 0 323 -137l-86 -138q-147 104 -244 104q-141 0 -141 -162q0 -81 33 -138q41 -70 115 -70h358l25 -180h-595q-121 0 -190 -102q-61 -90 -61 -216q0 -166 98 -269.5t264 -103.5h489l25 -177h-471
q-244 0 -413 154q-174 158 -174 399zM565 1050q0 108 131 108q130 0 130 -108q0 -53 -36 -89.5t-89 -36.5q-136 0 -136 126z" />
    <glyph glyph-name="u0640" unicode="&#x640;" horiz-adv-x="469" 
d="M-20 0v180h525v-180h-525z" />
    <glyph glyph-name="u0641" unicode="&#x641;" horiz-adv-x="1606" 
d="M63 293v272h181v-247q0 -77 28.5 -107.5t103.5 -30.5h860q82 0 103 31q10 15 24 104q-254 0 -318 23q-146 51 -146 248q0 133 90 210q85 72 220 72q143 0 234 -100q86 -95 89.5 -239.5t3.5 -213.5q0 -129 -73 -219q-79 -96 -205 -96h-938q-116 0 -189 90q-68 84 -68 203z
M1053 573q0 -88 138 -89q42 0 168 -1q0 86 -44 143q-48 64 -131 64q-131 0 -131 -117zM1073 1076q0 109 130 109q131 0 131 -109q0 -51 -37.5 -87t-88.5 -36q-135 0 -135 123z" />
    <glyph glyph-name="u0642" unicode="&#x642;" horiz-adv-x="1339" 
d="M96 -6v359h170v-366q0 -125 77.5 -211t201.5 -86h250q127 0 208 92q76 87 78 217q-254 0 -320 22q-146 50 -146 247q0 129 88 206q84 72 216 72q152 0 244 -102q90 -98 90 -251v-158q0 -39 -9 -143q-14 -164 -145 -270q-124 -101 -293 -101h-272q-200 0 -322 138
q-116 132 -116 335zM609 741q0 100 116 100q124 0 124 -100q0 -47 -33.5 -76t-80.5 -29q-126 0 -126 105zM775 268q0 -108 169 -108q91 0 135 5q0 84 -46 142q-49 63 -132 63q-126 0 -126 -102zM955 741q0 100 116 100q125 0 125 -100q0 -47 -33 -76t-80 -29
q-128 0 -128 105z" />
    <glyph glyph-name="u0644" unicode="&#x644;" horiz-adv-x="1361" 
d="M95 9v376h180v-396q0 -112 94 -188q87 -71 201 -71h233q108 0 193 74q88 78 88 185v1165h180v-1131q0 -204 -122 -339q-127 -139 -328 -139h-275q-180 0 -313 143q-131 140 -131 321z" />
    <glyph glyph-name="u0645" unicode="&#x645;" horiz-adv-x="1149" 
d="M76 343q0 173 91 272q94 104 266 104h365q180 0 245 -131q43 -89 43 -293q0 -136 -91.5 -218t-228.5 -82q-139 0 -226 95q-85 92 -85 233v220q-31 2 -37 2q-70 0 -117.5 -55t-47.5 -125v-820h-177v798zM629 293q0 -52 50 -86q45 -31 99 -31q132 0 132 158q0 145 -29 172
q-33 31 -252 37v-250z" />
    <glyph glyph-name="u0646" unicode="&#x646;" horiz-adv-x="1339" 
d="M76 9v376h177v-396q0 -114 89 -191q85 -73 201 -73h232q117 0 200.5 74t83.5 190v576h180v-536q0 -211 -120 -345q-125 -139 -333 -139h-277q-185 0 -311 141q-122 136 -122 323zM471 606q0 108 128 108q131 0 131 -108q0 -51 -36.5 -87t-88.5 -36q-134 0 -134 123z" />
    <glyph glyph-name="u0647" unicode="&#x647;" horiz-adv-x="809" 
d="M70 329q0 154 205 359l-52 58l122 122l329 -340q84 -87 84 -223q0 -140 -107 -234q-103 -91 -245 -91q-147 0 -241.5 100.5t-94.5 248.5zM244 311q0 -69 52 -113.5t123 -44.5t115.5 46t44.5 117q0 55 -29 85l-145 153q-161 -153 -161 -243z" />
    <glyph glyph-name="u0648" unicode="&#x648;" horiz-adv-x="893" 
d="M73 -275h227q128 0 212 74t89 201q-225 0 -327 60q-136 80 -136 288q0 226 107 317q66 56 220 56q205 0 274 -172q42 -107 42 -346v-226q0 -180 -135.5 -306t-316.5 -126h-233zM323 344q0 -114 91 -146q49 -18 187 -18v185q0 176 -141 176q-86 0 -116 -58
q-21 -42 -21 -139z" />
    <glyph glyph-name="u0649" unicode="&#x649;" horiz-adv-x="1289" 
d="M79 9v372h169v-392q0 -120 88 -196q84 -72 205 -72h232q106 0 190 69q90 72 90 176q0 89 -123 117q-33 7 -45 7h-250v309q0 139 89 229.5t229 90.5h216l7 -169h-216q-97 0 -134 -86q-17 -42 -22 -205q213 0 284 -26q137 -52 137 -224q0 -265 -191 -390q-113 -74 -250 -74
h-279q-185 0 -308 141q-118 135 -118 323z" />
    <glyph glyph-name="u064B" unicode="&#x64b;" 
d="M200 1540l315 173l28 -52l-315 -168zM201 1656l315 174l28 -52l-316 -172z" />
    <glyph glyph-name="u064C" unicode="&#x64c;" 
d="M149 1600q56 19 85 19q57 0 72 -78l77 45q-79 45 -79 114q0 90 87 124q29 11 37 11q54 0 93 -37t39 -90q0 -91 -49 -117l-283 -151l-28 48q51 33 63 53q0 34 -45 34q-29 0 -49 -11zM349 1701q0 -78 85 -78q26 0 53 29.5t27 56.5q0 33 -26.5 56t-59.5 23q-79 0 -79 -87z
" />
    <glyph glyph-name="u064D" unicode="&#x64d;" 
d="M-116 -853l315 174l27 -52l-315 -169zM-116 -996l315 175l27 -54l-315 -169z" />
    <glyph glyph-name="u064E" unicode="&#x64e;" 
d="M200 1535l315 176l28 -55l-315 -168z" />
    <glyph glyph-name="u064F" unicode="&#x64f;" 
d="M200 1511l126 70q-78 45 -78 113q0 91 90 125q26 10 33 10q55 0 94.5 -37t39.5 -91q0 -89 -50 -116l-227 -121zM293 1695q0 -79 86 -79q26 0 52.5 30t26.5 57q0 33 -26.5 55.5t-60.5 22.5q-78 0 -78 -86z" />
    <glyph glyph-name="u0650" unicode="&#x650;" 
d="M-125 -875l315 175l28 -54l-314 -169z" />
    <glyph glyph-name="u0651" unicode="&#x651;" 
d="M169 1723h45q0 -100 81 -100q80 0 83 100h50q0 -100 83 -100q81 0 82 100h48q0 -62 -35 -105q-37 -47 -97 -47q-45 0 -110 57q-47 -57 -110 -57q-57 0 -91 49q-29 43 -29 103z" />
    <glyph glyph-name="u0652" unicode="&#x652;" 
d="M230 1648q0 54 39.5 88t94.5 34q54 0 89 -39t35 -93t-40.5 -89.5t-94.5 -35.5q-52 0 -87.5 41t-35.5 94zM273 1641q0 -34 26 -59.5t60 -25.5q30 0 56 27.5t26 57.5q0 60 -60 80q-18 7 -22 7q-34 0 -60 -26.5t-26 -60.5z" />
    <glyph glyph-name="u067E" unicode="&#x67e;" horiz-adv-x="1606" 
d="M73 293v272h180v-247q0 -76 28.5 -107t103.5 -31h840q75 0 104.5 31t29.5 107v247h182v-272q0 -114 -72 -201q-76 -92 -188 -92h-950q-115 0 -189 90q-69 84 -69 203zM545 -343q0 46 34 77.5t80 31.5q52 0 88 -27q39 -31 39 -82q0 -96 -116 -96q-125 0 -125 96zM710 -598
q0 109 114 109q52 0 88 -27q39 -31 39 -82q0 -98 -115 -98q-126 0 -126 98zM890 -343q0 46 34 77.5t80 31.5q52 0 88 -27q39 -31 39 -82q0 -96 -116 -96q-125 0 -125 96z" />
    <glyph glyph-name="u0686" unicode="&#x686;" horiz-adv-x="1104" 
d="M39 -304q0 297 262 442l550 303q-40 75 -121 89q-74 12 -475 13l-22 176h433q376 0 377 -371l-593 -332q-240 -134 -240 -334q0 -146 113.5 -259.5t260.5 -113.5h525l15 -177h-493q-253 0 -420 155q-172 158 -172 409zM430 -223q0 48 32.5 79t80.5 31q51 0 88 -28
q40 -31 40 -82q0 -95 -121 -95q-120 0 -120 95zM593 -478q0 110 112 110q52 0 89 -28q40 -31 40 -82q0 -97 -115 -97q-126 0 -126 97zM778 -223q0 48 32 79t80 31q52 0 89 -28q40 -31 40 -82q0 -95 -123 -95q-118 0 -118 95z" />
    <glyph glyph-name="u0698" unicode="&#x698;" horiz-adv-x="922" 
d="M48 -270h202q130 0 224 62q107 72 107 197v576h185v-534q0 -199 -125 -340q-129 -146 -326 -146h-239zM363 800q0 96 116 96q125 0 125 -96q0 -47 -33 -79t-80 -32q-50 0 -89 31t-39 80zM536 1054q0 97 123 97q121 0 121 -92q0 -49 -33 -82t-82 -33q-52 0 -89 28
q-40 31 -40 82zM710 800q0 96 116 96q128 0 128 -96q0 -48 -33.5 -79.5t-81.5 -31.5q-52 0 -89 29q-40 32 -40 82z" />
    <glyph glyph-name="u06AF" unicode="&#x6af;" horiz-adv-x="1606" 
d="M90 293v272h180v-247q0 -78 30 -108t108 -30h876q34 0 63 24t29 57q0 25 -17 43l-499 514l-34 202l665 239l25 -180l-466 -178l416 -460q89 -98 89 -200q0 -120 -84 -184q-75 -57 -198 -57h-925q-114 0 -188 91q-70 85 -70 202zM809 1203l632 227l5 -69l-628 -227z" />
    <glyph glyph-name="uni2000" unicode="&#x2000;" horiz-adv-x="1032" 
 />
    <glyph glyph-name="uni2001" unicode="&#x2001;" horiz-adv-x="2064" 
 />
    <glyph glyph-name="uni2002" unicode="&#x2002;" horiz-adv-x="1032" 
 />
    <glyph glyph-name="uni2003" unicode="&#x2003;" horiz-adv-x="2064" 
 />
    <glyph glyph-name="uni2004" unicode="&#x2004;" horiz-adv-x="688" 
 />
    <glyph glyph-name="uni2005" unicode="&#x2005;" horiz-adv-x="516" 
 />
    <glyph glyph-name="uni2006" unicode="&#x2006;" horiz-adv-x="344" 
 />
    <glyph glyph-name="uni2007" unicode="&#x2007;" horiz-adv-x="344" 
 />
    <glyph glyph-name="uni2008" unicode="&#x2008;" horiz-adv-x="258" 
 />
    <glyph glyph-name="uni2009" unicode="&#x2009;" horiz-adv-x="412" 
 />
    <glyph glyph-name="uni200A" unicode="&#x200a;" horiz-adv-x="114" 
 />
    <glyph glyph-name="zeronojoin" unicode="&#x200c;" horiz-adv-x="45" 
 />
    <glyph glyph-name="zerojoin" unicode="&#x200d;" horiz-adv-x="45" 
 />
    <glyph glyph-name="lefttoright" unicode="&#x200e;" horiz-adv-x="41" 
d="M0 0v1464h195l-75 75l31 28l120 -123l-120 -123l-31 26l80 79h-159v-1426h-41z" />
    <glyph glyph-name="righttoleft" unicode="&#x200f;" horiz-adv-x="41" 
d="M-233 1444l125 123l26 -28l-74 -75h197v-1464h-41v1426h-159l77 -79l-26 -26z" />
    <glyph glyph-name="uni2010" unicode="&#x2010;" horiz-adv-x="1149" 
d="M95 239v177h981v-177h-981z" />
    <glyph glyph-name="uni2011" unicode="&#x2011;" horiz-adv-x="1149" 
d="M95 239v177h981v-177h-981z" />
    <glyph glyph-name="figuredash" unicode="&#x2012;" horiz-adv-x="1149" 
d="M95 239v177h981v-177h-981z" />
    <glyph glyph-name="endash" unicode="&#x2013;" horiz-adv-x="1192" 
d="M95 239v177h1024v-177h-1024z" />
    <glyph glyph-name="emdash" unicode="&#x2014;" horiz-adv-x="2216" 
d="M95 239v177h2048v-177h-2048z" />
    <glyph glyph-name="quoteleft" unicode="&#x2018;" horiz-adv-x="662" 
d="M203 1026q0 162 25 228q43 111 176 124v-65q-77 -9 -105 -77q-16 -40 -20 -136q188 0 188 -124q0 -110 -137 -110q-81 0 -107 43q-20 32 -20 117z" />
    <glyph glyph-name="quoteright" unicode="&#x2019;" horiz-adv-x="570" 
d="M153 1268q0 110 136 110q82 0 109 -43q18 -30 18 -117q0 -164 -25 -229q-42 -111 -176 -123v65q79 8 106 75q15 37 19 138q-187 0 -187 124z" />
    <glyph glyph-name="quotedblleft" unicode="&#x201c;" horiz-adv-x="618" 
d="M39 1021q0 163 25 229q42 111 176 123v-65q-79 -8 -106 -75q-15 -38 -19 -138q188 0 188 -124q0 -110 -137 -110q-82 0 -108 43q-19 30 -19 117zM340 1026q0 162 25 228q43 111 176 124v-65q-77 -9 -105 -77q-16 -40 -20 -136q188 0 188 -124q0 -110 -136 -110
q-82 0 -108 43q-20 32 -20 117z" />
    <glyph glyph-name="quotedblright" unicode="&#x201d;" horiz-adv-x="618" 
d="M39 1263q0 110 136 110q81 0 108 -43q20 -32 20 -117q0 -163 -25 -228q-43 -111 -177 -124v65q78 9 105 77q16 39 20 136q-187 0 -187 124zM340 1268q0 110 136 110q83 0 109 -43q19 -30 19 -117q0 -164 -25 -229q-43 -111 -176 -123v65q78 8 106 75q15 37 19 138
q-188 0 -188 124z" />
    <glyph glyph-name="uni202F" unicode="&#x202f;" horiz-adv-x="412" 
 />
    <glyph glyph-name="guilsinglleft" unicode="&#x2039;" horiz-adv-x="631" 
d="M170 255v194l320 250v-145l-259 -200l259 -203v-146z" />
    <glyph glyph-name="guilsinglright" unicode="&#x203a;" horiz-adv-x="573" 
d="M152 5v144l263 200l-263 204v146l321 -250v-194z" />
    <glyph glyph-name="uni205F" unicode="&#x205f;" horiz-adv-x="516" 
 />
    <glyph glyph-name="uniE000" unicode="&#xe000;" horiz-adv-x="500" 
d="M0 0z" />
    <glyph glyph-name="uE820" unicode="&#xe820;" 
d="M10 1026l315 176l28 -55l-315 -168z" />
    <glyph glyph-name="uE821" unicode="&#xe821;" 
d="M20 1048l126 70q-78 45 -78 113q0 91 90 125q26 10 33 10q55 0 94.5 -37t39.5 -91q0 -89 -50 -116l-227 -121zM113 1232q0 -79 86 -79q26 0 52.5 30t26.5 57q0 33 -26.5 55.5t-60.5 22.5q-78 0 -78 -86z" />
    <glyph glyph-name="uE822" unicode="&#xe822;" 
d="M-1 1164q0 54 39.5 88t94.5 34q54 0 89 -39t35 -93t-40.5 -89.5t-94.5 -35.5q-52 0 -87.5 41t-35.5 94zM42 1157q0 -34 26 -59.5t60 -25.5q30 0 56 27.5t26 57.5q0 60 -60 80q-18 7 -22 7q-34 0 -60 -26.5t-26 -60.5z" />
    <glyph glyph-name="uE823" unicode="&#xe823;" 
d="M-10 1051l315 173l28 -52l-315 -168zM-9 1167l315 174l28 -52l-316 -172z" />
    <glyph glyph-name="uE824" unicode="&#xe824;" 
d="M10 1132q56 19 85 19q57 0 72 -78l77 45q-79 45 -79 114q0 90 87 124q29 11 37 11q54 0 93 -37t39 -90q0 -91 -49 -117l-283 -151l-28 48q51 33 63 53q0 34 -45 34q-29 0 -49 -11zM210 1233q0 -78 85 -78q26 0 53 29.5t27 56.5q0 33 -26.5 56t-59.5 23q-79 0 -79 -87z
" />
    <glyph glyph-name="uE825" unicode="&#xe825;" 
d="M-31 1219h45q0 -100 81 -100q80 0 83 100h50q0 -100 83 -100q81 0 82 100h48q0 -62 -35 -105q-37 -47 -97 -47q-45 0 -110 57q-47 -57 -110 -57q-57 0 -91 49q-29 43 -29 103z" />
    <glyph glyph-name="uE826" unicode="&#xe826;" 
d="M-205 -488l315 175l28 -54l-314 -169z" />
    <glyph glyph-name="uE827" unicode="&#xe827;" 
d="M-242 -583l315 174l27 -52l-315 -169zM-242 -726l315 175l27 -54l-315 -169z" />
    <glyph glyph-name="uE828" unicode="&#xe828;" 
d="M-16 1242h45q0 -100 81 -100q80 0 83 100h50q0 -100 83 -100q81 0 82 100h48q0 -62 -35 -105q-37 -47 -97 -47q-45 0 -110 57q-47 -57 -110 -57q-57 0 -91 49q-29 43 -29 103zM30 1394l315 176l28 -55l-315 -168z" />
    <glyph glyph-name="uE829" unicode="&#xe829;" 
d="M-16 1242h45q0 -100 81 -100q80 0 83 100h50q0 -100 83 -100q81 0 82 100h48q0 -62 -35 -105q-37 -47 -97 -47q-45 0 -110 57q-47 -57 -110 -57q-57 0 -91 49q-29 43 -29 103zM60 1427l126 70q-78 45 -78 113q0 91 90 125q26 10 33 10q55 0 94.5 -37t39.5 -91
q0 -89 -50 -116l-227 -121zM153 1611q0 -79 86 -79q26 0 52.5 30t26.5 57q0 33 -26.5 55.5t-60.5 22.5q-78 0 -78 -86z" />
    <glyph glyph-name="uE82A" unicode="&#xe82a;" 
d="M-16 1242h45q0 -100 81 -100q80 0 83 100h50q0 -100 83 -100q81 0 82 100h48q0 -62 -35 -105q-37 -47 -97 -47q-45 0 -110 57q-47 -57 -110 -57q-57 0 -91 49q-29 43 -29 103zM49 1408l315 173l28 -52l-315 -168zM50 1524l315 174l28 -52l-316 -172z" />
    <glyph glyph-name="uE82B" unicode="&#xe82b;" 
d="M5 1224h45q0 -100 81 -100q80 0 83 100h50q0 -100 83 -100q81 0 82 100h48q0 -62 -35 -105q-37 -47 -97 -47q-45 0 -110 57q-47 -57 -110 -57q-57 0 -91 49q-29 43 -29 103zM37 1537q56 19 85 19q57 0 72 -78l77 45q-79 45 -79 114q0 90 87 124q29 11 37 11q54 0 93 -37
t39 -90q0 -91 -49 -117l-283 -151l-28 48q51 33 63 53q0 34 -45 34q-29 0 -49 -11zM237 1638q0 -78 85 -78q26 0 53 29.5t27 56.5q0 33 -26.5 56t-59.5 23q-79 0 -79 -87z" />
    <glyph glyph-name="uE82C" unicode="&#xe82c;" 
d="M184 1487h45q0 -100 81 -100q80 0 83 100h50q0 -100 83 -100q81 0 82 100h48q0 -62 -35 -105q-37 -47 -97 -47q-45 0 -110 57q-47 -57 -110 -57q-57 0 -91 49q-29 43 -29 103zM235 1111l315 175l28 -54l-314 -169z" />
    <glyph glyph-name="uE82D" unicode="&#xe82d;" 
d="M184 1703h45q0 -100 81 -100q80 0 83 100h50q0 -100 83 -100q81 0 82 100h48q0 -62 -35 -105q-37 -47 -97 -47q-45 0 -110 57q-47 -57 -110 -57q-57 0 -91 49q-29 43 -29 103zM220 1162l315 175l27 -54l-315 -169zM220 1305l315 174l27 -52l-315 -169z" />
    <glyph glyph-name="glyph218" horiz-adv-x="1" 
d="M390 434v287h78l2 -289z" />
  </font>
</defs>
</svg>
